<?xml version="1.0" standalone="no"?>
<!DOCTYPE svg PUBLIC "-//W3C//DTD SVG 1.1//EN" "http://www.w3.org/Graphics/SVG/1.1/DTD/svg11.dtd" >
<svg xmlns="http://www.w3.org/2000/svg">
<metadata>
This is a custom SVG webfont generated by Font Squirrel.
Copyright   : Copyright c Magenta Ltd 2004
Foundry     : Magenta Ltd
Foundry URL : httpwwwmagentagr
</metadata>
<defs>
<font id="MgOpenModataOblique" horiz-adv-x="1218" >
<font-face units-per-em="2048" ascent="1638" descent="-410" />
<missing-glyph horiz-adv-x="552" />
<glyph unicode=" "  horiz-adv-x="552" />
<glyph unicode="&#x09;" horiz-adv-x="552" />
<glyph unicode="&#xa0;" horiz-adv-x="552" />
<glyph unicode="!" horiz-adv-x="405" d="M20 84q0 47 35 85t92 38q88 0 89 -86q0 -47 -34 -84t-91 -37q-91 0 -91 84zM102 350q0 10 2 21l236 1114q18 88 94 88q59 0 60 -64q0 -10 -2 -24l-238 -1114q-16 -76 -92 -76q-60 0 -60 55z" />
<glyph unicode="&#x22;" horiz-adv-x="632" d="M250 1163q0 10 2 23l63 301q18 88 95 88q59 0 59 -64q0 -10 -2 -24l-66 -301q-16 -80 -92 -80q-59 0 -59 57zM535 1163q0 10 4 23l63 301q18 88 96 88q61 0 62 -64q0 -10 -4 -24l-64 -301q-16 -80 -96 -80q-61 0 -61 57z" />
<glyph unicode="#" horiz-adv-x="1292" d="M113 526q14 74 166 74q25 0 60.5 -2t39.5 -2l121 332h-150q-66 0 -65 55q0 31 25.5 54.5t68.5 23.5h166l149 434q27 76 82 76q59 0 60 -55q0 -10 -5 -21l-153 -434h289l151 434q27 78 82 78t55 -53q0 -12 -4 -25l-149 -434q4 0 36.5 2t55.5 2q133 0 117 -70 q-14 -68 -105 -67h-149l-121 -332h35q31 2 51 2q135 0 121 -72q-16 -74 -160 -73q-25 0 -56.5 2t-37.5 2l-129 -357q-37 -100 -111 -100q-39 0 -39 41q0 14 8 35l136 381h-287l-129 -357q-37 -102 -109 -102q-39 0 -39 43q0 16 7 35l135 381q-4 0 -36 -2t-54 -2 q-145 -1 -129 73zM512 596h289l121 332h-289z" />
<glyph unicode="$" horiz-adv-x="1091" d="M74 143q0 33 24.5 61.5t59.5 28.5q23 0 103.5 -49t154.5 -53l133 631q-309 80 -309 328q0 164 140 311t343 176q4 16 15.5 79.5t56.5 63.5q33 0 32 -41q0 -8 -2 -20l-16 -82q86 0 186 -49q121 -59 107 -133q-16 -72 -86 -72q-18 0 -89 50t-151 54l-108 -516 q336 -111 336 -381q0 -195 -167 -363.5t-364 -168.5q-4 -23 -20 -100q-10 -55 -54 -56q-35 0 -34 41q0 10 2 21l20 94q-63 -4 -160 33q-84 33 -135 69q-18 14 -18 43zM418 1145q0 -145 170 -201l104 483q-121 -23 -197.5 -105.5t-76.5 -176.5zM506 147q133 20 227 123 t94 219q0 168 -198 240z" />
<glyph unicode="%" horiz-adv-x="1630" d="M246 1106q0 176 112 313q125 152 318 152q133 0 205 -84q66 -76 65 -199q0 -176 -117 -317q-127 -156 -315 -156q-131 0 -203 86q-65 80 -65 205zM375 27q0 20 14 45l862 1429q37 61 92 62q49 0 50 -50q0 -29 -25 -69l-879 -1444q-16 -27 -53 -27q-61 1 -61 54zM385 1118 q0 -186 154 -186q119 0 200 110q74 100 74 224q0 82 -41 135t-121 53q-117 0 -194 -111q-72 -102 -72 -225zM829 289q0 174 115 313q125 154 320 154q129 0 200 -86q63 -76 64 -201q0 -176 -113 -315q-125 -156 -313 -156q-133 0 -207 86q-66 80 -66 205zM969 301 q0 -186 159 -186q117 0 195 110q72 98 72 221q0 84 -37 136q-43 57 -119 57q-117 0 -197 -113q-73 -102 -73 -225z" />
<glyph unicode="&#x26;" horiz-adv-x="1482" d="M82 340q0 336 479 604q-72 96 -72 223q0 160 101 279q104 127 264 127q127 0 203 -76q70 -70 69 -178q0 -119 -82 -225q-90 -119 -251 -183l292 -438l164 205q63 80 121 80q51 0 51 -58q0 -49 -47 -104l-213 -258l139 -201q12 -14 13 -33q0 -39 -35 -73.5t-72 -34.5 q-29 0 -47 24l-145 201q-233 -266 -512 -266q-178 0 -299 110.5t-121 274.5zM248 360q0 -113 83 -186.5t206 -73.5q227 0 419 238l-335 489q-373 -215 -373 -467zM655 1219q0 -119 62 -191q123 39 196 125q63 76 64 158q0 131 -139 131q-90 0 -140 -70q-43 -61 -43 -153z " />
<glyph unicode="'" horiz-adv-x="497" d="M246 1149q0 18 10 35l190 315q47 76 109 76q68 0 68 -66q0 -31 -21 -61l-196 -301q-37 -55 -91 -55q-69 0 -69 57z" />
<glyph unicode="(" horiz-adv-x="563" d="M109 293q0 334 110 678q119 371 303 522q31 25 56 25q43 0 43 -52q0 -33 -25 -55q-152 -123 -261.5 -435t-109.5 -611q0 -295 117 -443q6 -10 6 -20q0 -23 -23.5 -42.5t-54.5 -19.5q-41 0 -67 37q-94 119 -94 416z" />
<glyph unicode=")" horiz-adv-x="563" d="M-23 -115q0 -45 56 -45q41 0 84 37q178 145 317 537q139 385 139 714q0 250 -90 365q-20 25 -45 25q-27 0 -49 -26t-22 -54q0 -14 8 -27q80 -100 80 -334q0 -301 -121 -628q-133 -356 -338 -527q-19 -17 -19 -37z" />
<glyph unicode="*" d="M485 987q0 72 66 96l219 82l-184 84q-39 16 -39 54q0 31 24.5 55t59.5 24q39 0 104 -55l86 -78q8 82 35 240q12 57 80 57q55 0 55 -43q0 -8 -4 -18l-65 -236q59 39 118 76q98 59 131 59q57 0 58 -55q0 -53 -70 -80l-223 -84l188 -82q39 -18 39 -61q0 -33 -24.5 -58.5 t-65.5 -25.5t-106 61q-41 41 -82 84q-8 -78 -31 -231q-18 -80 -86 -80q-49 0 -49 59q0 39 26 125l41 127l-118 -77q-102 -63 -136 -64q-47 0 -47 45z" />
<glyph unicode="+" d="M178 541q0 39 27.5 71.5t75.5 32.5h372l82 383q16 80 94 80q35 0 57.5 -21.5t14.5 -58.5l-80 -383h371q86 0 86 -72q0 -39 -31 -67q-37 -33 -92 -33h-371l-86 -397q-16 -78 -102 -78q-66 0 -66 59q0 8 2 19l84 397h-372q-66 0 -66 68z" />
<glyph unicode="," horiz-adv-x="495" d="M-45 -221q0 20 12 41l209 336q43 66 98 65q61 0 62 -55q0 -18 -10 -35l-232 -362q-33 -51 -78 -52q-61 1 -61 62z" />
<glyph unicode="-" horiz-adv-x="761" d="M125 549q0 35 30.5 65.5t77.5 30.5h422q72 0 72 -63q0 -35 -28.5 -64t-77.5 -29h-420q-76 1 -76 60z" />
<glyph unicode="." horiz-adv-x="407" d="M20 84q0 47 36 85t94 38q88 0 88 -86q0 -47 -34 -84t-91 -37q-93 0 -93 84z" />
<glyph unicode="../../../../default.htm" d="M256 14q0 41 31 90l862 1395q45 76 92 76t47 -53q0 -25 -16 -52l-866 -1431q-47 -80 -101 -80q-49 0 -49 55z" />
<glyph unicode="0" d="M238 496q0 377 198 712q215 362 506 363q182 0 279 -154q86 -137 86 -370q0 -379 -191 -711q-209 -362 -498 -363q-190 0 -290 154q-90 138 -90 369zM410 494q0 -174 55 -275q63 -113 182 -113q184 0 338 330q143 309 143 621q0 365 -217 364q-199 0 -356 -319 q-145 -295 -145 -608z" />
<glyph unicode="1" d="M694 59q0 8 2 19l273 1288h-199q-76 0 -76 61q0 35 29 62t76 27h252q86 0 86 -54q0 -18 -17 -88l-274 -1296q-16 -78 -90 -78q-62 0 -62 59z" />
<glyph unicode="2" d="M209 61q0 39 47 89l719 757q139 147 139 287q0 100 -69.5 165.5t-165.5 65.5q-100 0 -179 -73q-88 -82 -122 -238q-12 -59 -93 -59q-86 0 -71 69q47 221 196 340q131 106 299 107q160 0 271 -90q117 -96 116 -246q0 -209 -229 -444l-625 -641h555q61 0 62 -56 q0 -35 -26.5 -64.5t-67.5 -29.5h-658q-98 0 -98 61z" />
<glyph unicode="3" d="M223 268q0 47 32 84t67 37q39 0 57 -43q43 -113 65 -137q61 -78 185 -78q156 0 258 117q92 104 92 237q0 92 -51 154q-57 68 -162 74q-80 4 -80 63q0 33 31 59.5t82 26.5q106 0 196 122t90 247q0 186 -202 186q-176 0 -238 -233q-23 -88 -102 -88q-70 0 -70 71q0 14 4 31 q37 172 178 275q135 96 310 96q143 0 221 -88q72 -80 71 -209q0 -127 -68.5 -258t-189.5 -219q160 -82 160 -267q0 -199 -164 -370q-174 -184 -405 -185q-299 0 -365 267q-2 14 -2 28z" />
<glyph unicode="4" d="M197 459q0 49 45 102l719 862q80 96 176 97q106 0 106 -107q0 -18 -6 -41l-176 -829h98q61 0 62 -62q0 -35 -23.5 -63.5t-60.5 -28.5l-109 -2l-61 -291q-20 -96 -97 -96q-57 0 -57 68q0 12 4 28l62 291h-590q-92 0 -92 72zM403 543h508l176 829z" />
<glyph unicode="5" d="M217 207q0 41 22.5 74.5t51.5 33.5q33 0 55 -47q29 -53 100 -92q82 -47 185 -47q172 0 282 139q98 125 99 283q0 115 -58 188q-63 80 -182 80q-47 0 -116.5 -30.5t-104.5 -30.5q-66 0 -66 53q0 20 11 51l225 572q33 82 133 82h438q61 0 62 -68q0 -37 -27 -67.5t-70 -30.5 h-421l-156 -422q98 43 184 43q156 0 242 -109q78 -100 78 -260q0 -236 -154 -420q-172 -209 -442 -209q-115 0 -209 45q-102 49 -150 138q-12 22 -12 51z" />
<glyph unicode="6" d="M254 365q0 137 51 280q170 463 676 846q41 31 76 31q70 0 69 -68q0 -37 -32 -63q-313 -242 -455 -447q133 43 227 43q154 0 238 -104q76 -94 76 -250q0 -240 -156 -438q-170 -221 -420 -222q-178 0 -270 117q-80 103 -80 275zM422 383q0 -113 51 -182q57 -78 162 -78 q150 0 260 162q100 147 100 315q0 109 -51 177.5t-156 68.5q-160 0 -268 -154q-98 -141 -98 -309z" />
<glyph unicode="7" d="M352 57q0 41 31 90l768 1205h-623q-80 0 -79 67q0 37 31.5 68t82.5 31h723q98 0 98 -48q0 -31 -47 -102l-817 -1284q-53 -84 -114 -84q-54 0 -54 57z" />
<glyph unicode="8" d="M236 340q0 156 90 293q98 147 262 213q-123 88 -123 250q0 176 129 319q139 154 336 154q156 0 244 -90q82 -82 81 -213q0 -115 -65 -226q-72 -119 -199 -194q178 -96 178 -307q0 -207 -155 -381q-166 -184 -389 -185q-190 0 -295 111q-94 100 -94 256zM412 371 q0 -100 53 -162q61 -68 178 -68q152 0 254 125q94 115 94 258q0 102 -57 166q-61 72 -176 72q-147 0 -252 -129q-94 -119 -94 -262zM614 1110q0 -86 48 -139q51 -59 145 -60q121 0 203 105q76 96 75 215q0 82 -41 131q-47 57 -131 57q-133 0 -221 -102q-78 -90 -78 -207z " />
<glyph unicode="9" d="M266 903q0 246 160 445q178 221 446 221q170 0 258 -117q76 -102 76 -272q0 -82 -18 -168q-55 -260 -250 -543q-221 -319 -512 -485q-16 -10 -37 -11q-29 0 -52.5 19.5t-23.5 46.5q0 37 45 70q340 250 455 469q-115 -49 -211 -50q-166 0 -254 111q-82 100 -82 264z M453 926q0 -109 51 -174q55 -74 164 -74q168 0 276 156q96 139 96 313q0 119 -49 190q-53 82 -149 82q-164 0 -281 -166q-108 -151 -108 -327z" />
<glyph unicode=":" horiz-adv-x="403" d="M20 80q0 47 36 87t91 40q88 0 89 -86q0 -47 -34 -84t-91 -37q-91 0 -91 80zM174 809q0 47 35 85t92 38q88 0 88 -86q0 -47 -35 -86t-90 -39q-90 0 -90 88z" />
<glyph unicode=";" horiz-adv-x="432" d="M-117 -217q0 12 8 27l187 311q45 74 119 74q68 0 67 -48q0 -14 -10 -30l-217 -348q-23 -37 -76 -37q-78 0 -78 51zM199 788q0 47 34.5 85t94.5 38q86 0 86 -86q0 -47 -35 -85t-92 -38q-88 0 -88 86z" />
<glyph unicode="&#x3c;" d="M160 555q0 70 92 109l1024 434q39 16 70 16q57 0 57 -47q0 -63 -90 -102l-930 -406l743 -401q55 -31 56 -82q0 -74 -82 -74q-35 0 -74 23l-813 452q-53 29 -53 78z" />
<glyph unicode="=" d="M131 360q0 33 25.5 63t66.5 30h963q61 0 61 -58q0 -35 -26.5 -63.5t-67.5 -28.5h-960q-62 0 -62 57zM221 786q0 35 25.5 63t66.5 28h963q61 0 61 -60q0 -35 -25.5 -62.5t-68.5 -27.5h-960q-62 0 -62 59z" />
<glyph unicode="&#x3e;" d="M55 59q0 66 86 103l908 385l-736 422q-51 29 -51 71q0 33 25.5 55.5t60.5 22.5q25 0 47 -10l832 -455q72 -41 71 -86q0 -61 -133 -118l-1003 -437q-25 -10 -47 -10q-60 0 -60 57z" />
<glyph unicode="?" horiz-adv-x="956" d="M238 86q0 45 34.5 83t94.5 38q88 0 88 -84q0 -47 -33 -82q-37 -41 -96 -41q-88 0 -88 86zM276 1288q0 23 15 49q66 115 182 179q111 59 232 59q160 0 251 -94q100 -104 64 -279q-74 -346 -442 -422l-62 -291q-18 -88 -102 -88q-72 0 -72 68q0 10 2 20l74 342 q12 57 110 89q145 47 189 75q109 70 139 224q4 14 4 28q0 72 -66.5 127.5t-154.5 55.5q-152 0 -252 -158q-23 -35 -59 -35q-52 0 -52 51z" />
<glyph unicode="@" horiz-adv-x="1736" d="M141 578q0 360 252 643q276 315 699 315q287 0 464 -121q195 -133 195 -373q0 -66 -16 -137q-51 -244 -256 -436q-182 -170 -359 -197q-84 66 -170 134q-115 -135 -286 -136q-104 0 -172 60q-74 68 -74 186q0 43 10 90q47 225 238.5 415.5t371.5 190.5q160 0 238 -168 q39 117 123 117q43 0 43 -47q0 -55 -154.5 -307t-163.5 -334q-4 -68 50 -67q92 0 245 157q164 166 199 332q10 51 10 100q0 201 -178 318q-160 106 -385 106q-348 0 -578 -268q-209 -244 -208 -551q0 -221 122 -358q135 -154 383 -154q152 0 308 47q180 55 288 154 q57 49 97 49q31 0 30 -29q0 -39 -55 -88q-276 -250 -692 -250q-303 0 -469 183q-150 164 -150 424zM594 549q0 -123 113 -123q123 0 262 127q152 137 192 324q6 27 6 51q0 119 -125 119q-123 0 -254 -115q-147 -129 -188 -318q-6 -34 -6 -65z" />
<glyph unicode="A" horiz-adv-x="1327" d="M12 49q0 29 21 64l741 1310q53 92 139 93q82 0 97 -93l202 -1310q2 -12 2 -24q0 -37 -21 -60q-28 -31 -67 -31q-55 0 -63 51l-41 256h-723l-125 -227q-43 -80 -108 -80q-54 0 -54 51zM385 473h606l-123 834z" />
<glyph unicode="B" horiz-adv-x="1120" d="M16 57q0 18 4 43l281 1317q20 98 105 99h251q219 0 332 -89q96 -76 96 -202q0 -125 -88 -243t-215 -155q135 -23 205 -112q66 -80 66 -199q0 -193 -148 -346q-162 -170 -397 -170h-389q-55 0 -76 10q-27 12 -27 47zM184 150h305q174 0 287 106q102 98 103 227 q0 111 -82 183q-90 80 -252 79h-234zM340 879h182q184 0 295 94q98 84 98 196q0 84 -59 138q-66 59 -180 59h-234z" />
<glyph unicode="C" horiz-adv-x="1232" d="M141 565q0 98 23 205q74 346 325 571q233 207 510 228q27 2 54 2q243 0 391 -172q25 -27 24 -58q0 -35 -26.5 -61.5t-59.5 -26.5q-31 0 -49 25q-104 133 -297 133q-219 0 -411 -164q-213 -182 -277 -479q-18 -90 -18 -170q0 -219 129 -346q119 -119 301 -119 q195 0 358 135q32 26 60 26q10 0 20 -3q35 -12 35 -53q0 -47 -53 -91q-223 -172 -475 -172q-240 0 -396 154q-168 164 -168 436z" />
<glyph unicode="D" horiz-adv-x="1288" d="M12 45q0 14 6 39l283 1333q20 98 139 99h406q231 0 356 -166q113 -150 113 -394q0 -354 -209 -641q-233 -315 -582 -315h-438q-74 0 -74 45zM184 150h322q272 0 463 258q176 238 176 520q0 193 -94 309q-104 129 -303 129h-306z" />
<glyph unicode="E" horiz-adv-x="806" d="M12 43q0 14 8 49l283 1331q18 92 103 93h522q59 0 59 -60q0 -35 -22 -59q-29 -31 -70 -31h-455l-106 -504h436q61 0 61 -59q0 -35 -22 -62q-29 -29 -70 -28h-438l-119 -563h471q74 0 74 -62q0 -35 -28.5 -61.5t-77.5 -26.5h-537q-72 0 -72 43z" />
<glyph unicode="F" horiz-adv-x="780" d="M12 61l289 1356q20 98 105 99h524q61 0 61 -60q0 -33 -25.5 -61.5t-68.5 -28.5h-455l-110 -520h405q61 0 62 -60q0 -35 -25.5 -63.5t-68.5 -28.5h-404l-135 -633q-14 -61 -92 -61q-63 0 -63 45q-1 7 1 16z" />
<glyph unicode="G" horiz-adv-x="1409" d="M135 535q0 98 23 208q78 369 346 605q250 221 536 221q250 0 412 -183q23 -25 23 -53q0 -33 -30 -57.5t-67 -24.5q-33 0 -55 25q-115 131 -299 131q-217 0 -408 -170q-207 -186 -272 -487q-18 -90 -18 -170q0 -211 120 -334q111 -115 277 -115q188 0 342 143 q170 160 221 443h-244q-78 0 -77 59q0 35 31.5 62.5t82.5 27.5h273q109 0 108 -88q0 -31 -14 -94q-72 -336 -307 -532q-213 -176 -471 -177q-225 0 -373 140q-160 154 -160 420z" />
<glyph unicode="H" horiz-adv-x="1325" d="M14 55q0 8 2 19l291 1370q16 76 90 76q62 0 63 -52q0 -11 -3 -24l-127 -598h846l127 598q16 76 90 76q64 0 64 -52q0 -11 -3 -24l-291 -1370q-16 -76 -94 -76q-61 0 -61 57q0 8 4 19l131 620h-846l-131 -620q-16 -76 -90 -76q-62 0 -62 57z" />
<glyph unicode="I" horiz-adv-x="329" d="M14 57q0 8 2 19l291 1368q16 76 90 76q62 0 63 -52q0 -11 -3 -24l-291 -1368q-16 -76 -92 -76q-60 0 -60 57z" />
<glyph unicode="J" horiz-adv-x="821" d="M27 117q0 35 25.5 64.5t62.5 29.5q18 0 75.5 -47t139.5 -47q186 0 225 188l244 1139q14 76 92 76q64 0 64 -52q0 -11 -3 -24l-241 -1139q-35 -160 -160 -252q-113 -82 -254 -82q-164 0 -256 105q-14 16 -14 41z" />
<glyph unicode="K" horiz-adv-x="1153" d="M14 66l295 1390q14 63 88 64q67 0 68 -48q0 -7 -2 -16l-123 -577l844 618q27 18 53 19q29 0 48.5 -20.5t19.5 -47.5q0 -37 -33 -62l-817 -591l585 -662q16 -18 17 -43q0 -33 -30 -60.5t-66 -27.5q-37 0 -64 31l-590 696l-141 -663q-14 -68 -88 -68q-66 0 -66 48q0 9 2 20 z" />
<glyph unicode="L" horiz-adv-x="712" d="M20 76q0 18 5 41l282 1327q16 76 90 76q62 0 63 -52q0 -11 -3 -24l-275 -1294h389q61 0 62 -58q0 -35 -25.5 -63.5t-66.5 -28.5h-441q-80 0 -80 76z" />
<glyph unicode="M" horiz-adv-x="1798" d="M14 55q0 18 9 41l473 1274q55 154 163 154q98 0 111 -138l94 -1132l596 1132q70 133 170 134q97 0 97 -133q0 -8 -1 -17l-63 -1278q-4 -90 -86 -90q-70 0 -70 70v12l78 1251l-672 -1247q-49 -88 -104 -88q-53 0 -64 88l-124 1247l-449 -1249q-31 -84 -106 -84 q-52 0 -52 53z" />
<glyph unicode="N" horiz-adv-x="1306" d="M14 59q0 8 2 19l287 1352q20 90 94 90q55 0 90 -74l549 -1176l248 1170q16 78 90 78q61 0 62 -60q0 -8 -2 -18l-287 -1350q-18 -92 -94 -92q-57 0 -88 63l-553 1172l-246 -1155q-16 -80 -90 -80q-62 0 -62 61z" />
<glyph unicode="O" horiz-adv-x="1468" d="M141 555q0 371 228 676q250 336 616 336q256 0 393 -172q125 -156 125 -408q0 -373 -231 -676q-254 -336 -625 -336q-250 0 -385 172q-121 156 -121 408zM315 584q0 -201 88 -322q96 -135 275 -135q281 0 475 276q174 252 174 555q0 201 -88 322q-100 137 -287 137 q-276 0 -465 -278q-172 -252 -172 -555z" />
<glyph unicode="P" horiz-adv-x="1036" d="M14 57q0 10 2 19l289 1360q18 82 101 82h374q195 0 299 -107q94 -96 95 -252q0 -211 -150 -379q-166 -184 -408 -184h-340l-110 -520q-16 -76 -90 -76q-62 0 -62 57zM309 745h289q217 0 342 162q80 102 80 203q0 48 -19 96q-63 162 -303 162h-258z" />
<glyph unicode="Q" horiz-adv-x="1490" d="M143 559q0 375 222 674q248 334 622 334q256 0 389 -166q119 -147 119 -395q0 -182 -65.5 -378t-178.5 -354q20 -29 101 -143q10 -12 10 -31q0 -35 -29.5 -67.5t-60.5 -32.5q-23 0 -39 20l-107 138q-178 -184 -495 -185q-240 0 -371 174q-117 158 -117 412zM307 584 q0 -201 90 -324q98 -137 283 -137q215 0 367 151q-12 16 -86 109q-16 20 -17 45q0 37 32 67.5t68 30.5q27 0 46 -22l73 -96q170 285 170 585q0 188 -86 299q-96 125 -293 125q-281 0 -471 -278q-176 -252 -176 -555z" />
<glyph unicode="R" horiz-adv-x="1040" d="M16 66q0 12 4 26l285 1344q18 82 135 82h305q201 0 306 -93q92 -82 92 -217q0 -176 -139 -323q-150 -158 -359 -158h-139l385 -590q14 -23 14 -49q0 -37 -25.5 -64.5t-58.5 -27.5q-41 0 -67 43l-449 688l-135 -635q-20 -94 -94 -94q-60 0 -60 68zM336 877h291 q162 0 270 96q98 90 98 201q0 84 -63 137q-70 57 -201 57h-291z" />
<glyph unicode="S" horiz-adv-x="1060" d="M33 150q0 35 25.5 61.5t62.5 26.5q33 0 67 -25q119 -86 277 -86q133 0 229 70q111 80 144 233q8 37 8 70q0 133 -150 217q-139 66 -278 133q-150 90 -150 240q0 39 11 84q41 190 186 296q131 96 301 97q180 0 301 -107q39 -35 39 -78q0 -31 -22.5 -54t-53.5 -23 q-37 0 -72 30q-86 76 -227 76q-106 0 -184 -51q-88 -59 -113 -170q-4 -16 -4 -35q0 -94 152 -176q270 -145 282 -154q152 -113 152 -282q0 -49 -12 -103q-47 -223 -230 -350q-164 -117 -371 -117q-197 0 -331 105q-39 29 -39 72z" />
<glyph unicode="T" horiz-adv-x="1026" d="M305 1425q0 35 27.5 64t70.5 29h758q61 0 62 -58q0 -35 -26 -63.5t-69 -28.5h-303l-272 -1282q-18 -86 -92 -86q-61 0 -62 63q0 10 2 23l273 1282h-301q-68 0 -68 57z" />
<glyph unicode="U" horiz-adv-x="1335" d="M94 381q0 57 12 121l197 928q18 88 103 88q68 0 67 -66q0 -10 -2 -22l-195 -912q-8 -43 -8 -84q0 -201 193 -276q80 -31 161 -31q107 0 218 53q215 100 266 338l192 912q18 88 105 88q68 0 67 -66q0 -10 -2 -22l-198 -928q-51 -246 -269 -393q-195 -133 -432 -134 q-203 0 -333 101q-142 110 -142 305z" />
<glyph unicode="V" horiz-adv-x="1290" d="M307 1411q-2 10 -2 19q0 35 25 60q31 32 69 32q59 0 68 -62l168 -1206l672 1206q33 59 86 60q29 0 50 -20.5t21 -49.5q0 -18 -10 -39l-731 -1284q-72 -129 -143 -129q-63 0 -80 111z" />
<glyph unicode="W" horiz-adv-x="1792" d="M254 88l51 1337q0 43 31 69t65 26q68 0 64 -76l-57 -1256l616 1254q39 78 125 78t90 -78l64 -1254l473 1252q33 84 106 84q66 0 66 -62q0 -16 -9 -37l-518 -1321q-43 -106 -149 -106q-88 0 -94 74l-76 1231l-590 -1199q-53 -104 -158 -104q-104 0 -100 88z" />
<glyph unicode="X" horiz-adv-x="1294" d="M12 33q-1 6 -1 12q0 35 40 82l604 707l-280 565q-8 18 -8 37q0 35 27.5 59.5t60.5 24.5q41 0 59 -37l266 -514l439 512q31 37 69 37q61 0 62 -60q0 -31 -29 -61l-485 -545l327 -721q12 -31 13 -57q0 -78 -72 -78q-47 0 -70 47l-317 670l-572 -668q-41 -49 -86 -49 q-41 0 -47 37z" />
<glyph unicode="Y" horiz-adv-x="1101" d="M305 1427q0 39 26.5 66t57.5 27q41 0 57 -43l230 -598l477 594q39 47 84 47q55 0 55 -52q0 -29 -22 -57l-561 -698l-131 -625q-20 -88 -97 -88q-61 0 -61 63q0 12 2 25l133 625l-244 682q-6 16 -6 32z" />
<glyph unicode="Z" horiz-adv-x="1167" d="M14 59q0 57 43 107l1047 1202h-707q-63 0 -63 57q0 35 26.5 64t67.5 29h823q92 0 92 -54q0 -43 -59 -112l-1046 -1202h774q66 0 65 -56q0 -35 -27.5 -64.5t-70.5 -29.5h-907q-58 0 -58 59z" />
<glyph unicode="[" horiz-adv-x="491" d="M-12 -74q0 18 6 45l315 1481q20 100 105 100h149q51 0 51 -57q0 -31 -20.5 -54.5t-56.5 -23.5l-86 2l-299 -1415h84q53 0 53 -47q0 -31 -23.5 -58.5t-58.5 -27.5h-152q-67 0 -67 55z" />
<glyph unicode="\" horiz-adv-x="909" d="M315 1452q-8 39 17.5 66.5t60.5 27.5q61 0 76 -78l260 -1396q6 -33 -23.5 -64t-64.5 -31q-53 0 -68 78z" />
<glyph unicode="]" horiz-adv-x="491" d="M-12 -72q0 76 67 76h97l297 1399q-25 0 -89 -2q-51 0 -51 49q0 31 23.5 58.5t58.5 27.5h152q66 0 65 -66q0 -16 -4 -34l-311 -1465q-20 -100 -105 -100h-151q-49 0 -49 57z" />
<glyph unicode="^" d="M186 596q0 37 35 82l629 807q41 51 96 51q53 0 72 -51l268 -807q6 -20 6 -39q0 -39 -24.5 -66.5t-59.5 -27.5q-61 0 -88 84l-221 690l-534 -690q-63 -82 -127 -82q-52 0 -52 49z" />
<glyph unicode="_" horiz-adv-x="1030" d="M-121 -211q0 31 25.5 56.5t66.5 25.5h1024q68 0 68 -55q0 -31 -26.5 -55.5t-69.5 -24.5h-1024q-64 0 -64 53z" />
<glyph unicode="`" horiz-adv-x="497" d="M252 1106q-20 25 2 59l205 320q31 45 86 45q74 0 73 -51q0 -16 -10 -31l-205 -315q-33 -49 -94 -50q-39 0 -57 23z" />
<glyph unicode="a" horiz-adv-x="1124" d="M96 367q0 283 174 534q190 272 449 273q100 0 185 -53.5t110 -133.5q6 29 20 100q18 90 94 91q61 0 62 -62q0 -10 -2 -20l-225 -1055q-14 -66 -89 -66q-67 0 -67 46q0 7 2 16q8 27 22 86q-92 -88 -188 -123q-80 -27 -209 -27q-170 0 -258 115q-80 105 -80 279zM264 412 q0 -133 53 -215q61 -90 175 -91q209 0 350 238q105 177 105 351q0 44 -7 87q-35 236 -254 236q-178 0 -305 -203q-117 -186 -117 -403z" />
<glyph unicode="b" horiz-adv-x="1118" d="M10 37q0 12 2 24l293 1375q16 80 94 80q61 0 62 -60q0 -10 -4 -20l-97 -457q168 195 379 195q182 0 279 -130q88 -115 88 -305q0 -281 -168 -512q-182 -254 -453 -254q-219 0 -303 164l-16 -78q-18 -84 -98 -84q-58 1 -58 62zM260 426q0 -141 59 -225q68 -94 195 -95 q178 0 303 207q113 188 113 410q0 137 -53 221q-57 92 -166 92q-190 0 -326 -205q-125 -188 -125 -405z" />
<glyph unicode="c" horiz-adv-x="894" d="M104 412q0 279 181 510q197 252 483 252q53 0 117 -19q78 -23 112 -59q23 -23 23 -54q0 -37 -32 -68.5t-73 -31.5q-20 0 -73.5 36t-116.5 36q-209 0 -352 -228q-106 -171 -106 -341q0 -40 5 -80q37 -227 256 -228q55 0 135 25.5t95 25.5q63 0 63 -55q0 -53 -57 -94 q-94 -66 -246 -66q-207 0 -315 131q-99 118 -99 308z" />
<glyph unicode="d" horiz-adv-x="1130" d="M100 389q0 283 172 522q188 262 453 263q109 0 178 -52q59 -43 115 -139l96 455q16 80 94 80q61 0 62 -60q0 -8 -4 -20l-297 -1399q-14 -70 -88 -70q-66 0 -67 50q0 10 3 22l21 96q-141 -166 -369 -166q-184 0 -281 123q-88 113 -88 295zM268 418q0 -131 56 -209 q61 -88 178 -88q195 0 327 194q123 176 123 387q0 137 -61 224q-70 92 -199 92q-176 0 -305 -201q-119 -186 -119 -399z" />
<glyph unicode="e" horiz-adv-x="1099" d="M104 414q0 276 179 510q190 252 462 252q182 0 281.5 -97.5t99.5 -269.5q0 -68 -16 -145q-35 -166 -90 -166h-739q-8 -35 -9 -74q0 -127 78 -219q80 -98 201 -99q113 0 244 85t149 85q61 0 62 -63q0 -31 -25 -55q-182 -184 -457 -185q-211 0 -321 131q-99 117 -99 310z M313 653h641q12 57 13 111q0 129 -71 198.5t-177 69.5q-129 0 -240 -94q-125 -107 -166 -285z" />
<glyph unicode="f" horiz-adv-x="608" d="M193 55q0 8 2 19l192 907h-94q-70 0 -70 57q0 35 29 66t74 31h96l41 196q39 188 207 189h133q76 0 76 -60q0 -31 -29 -55.5t-78 -24.5q-96 0 -117 -8q-37 -16 -53 -94l-31 -143q33 0 131 2q70 0 70 -62q0 -37 -29.5 -66.5t-76.5 -29.5l-127 2l-193 -907q-16 -76 -94 -76 q-59 0 -59 57z" />
<glyph unicode="g" horiz-adv-x="1136" d="M-16 -272q0 37 22.5 64.5t56.5 27.5q23 0 43 -13l123 -73q96 -47 205 -47q315 0 414 456q-55 -80 -162 -127q-94 -41 -190 -41q-195 0 -297 131q-94 117 -95 308q0 279 175 508q190 252 471 252q94 0 171.5 -46.5t108.5 -126.5l23 111q14 68 88 68q66 0 66 -50 q0 -10 -3 -22l-229 -1081q-47 -223 -206 -357.5t-380 -134.5q-254 0 -383 133q-22 25 -22 60zM283 430q0 -139 57 -225q63 -96 184 -96q184 0 316 206q123 190 123 410q0 137 -58 219q-63 92 -184 92q-188 0 -320 -202q-118 -185 -118 -404z" />
<glyph unicode="h" horiz-adv-x="1015" d="M14 55q0 8 2 19l289 1364q16 80 90 80q61 0 62 -62q0 -8 -2 -18l-88 -422q150 156 344 155q137 0 227 -77q94 -84 94 -224q0 -41 -8 -88l-152 -708q-16 -76 -92 -76q-59 0 -59 55q0 10 2 21l137 643q8 45 8 86q0 111 -65 172q-59 55 -154 55q-113 0 -209 -78 q-106 -88 -137 -235l-137 -643q-16 -76 -94 -76q-58 0 -58 57z" />
<glyph unicode="i" horiz-adv-x="368" d="M45 57q0 8 2 19l217 1022q14 76 90 76q64 0 65 -52q0 -11 -3 -24l-217 -1022q-16 -78 -93 -78q-61 0 -61 59zM299 1397q0 47 35 85t94 38q86 0 86 -86q0 -49 -33 -84q-39 -39 -100 -39q-82 0 -82 86z" />
<glyph unicode="j" horiz-adv-x="368" d="M-55 -420q0 10 2 21l317 1497q16 78 92 78q61 0 62 -58q0 -10 -2 -20l-320 -1497q-16 -76 -92 -76q-59 0 -59 55zM299 1397q0 47 35 85t94 38q88 0 88 -86q0 -47 -35 -85t-94 -38q-88 0 -88 86z" />
<glyph unicode="k" horiz-adv-x="942" d="M14 55q0 8 2 19l289 1366q16 76 92 76q61 0 62 -58q0 -8 -2 -18l-148 -695l570 388q25 18 51 18q66 0 65 -66q0 -51 -59 -90l-533 -350l404 -487q31 -37 31 -76q0 -37 -26 -62.5t-62 -25.5q-47 0 -86 47l-402 483l-96 -450q-16 -74 -92 -74q-60 0 -60 55z" />
<glyph unicode="l" horiz-adv-x="321" d="M14 57q0 8 2 19l291 1366q16 78 90 78q63 0 64 -60q0 -10 -2 -18l-291 -1366q-16 -78 -92 -78q-62 0 -62 59z" />
<glyph unicode="m" horiz-adv-x="1660" d="M14 59q0 10 2 19l215 1007q18 90 95 91q59 0 59 -64q0 -12 -2 -27l-18 -73q152 162 333 162q203 0 267 -195q172 195 403 195q156 0 246 -97q71 -75 71 -183q0 -39 -10 -83l-155 -733q-16 -74 -95 -74q-64 0 -64 50q0 11 3 24l141 667q8 41 8 78q0 92 -55 146 q-51 47 -133 47q-113 0 -211 -82q-111 -90 -143 -240l-131 -616q-16 -76 -90 -76q-61 0 -62 57q0 10 2 19l141 667q8 39 9 74q0 92 -56 146q-53 47 -135 47q-113 0 -211 -80q-109 -90 -141 -238l-131 -616q-16 -76 -90 -76q-62 0 -62 57z" />
<glyph unicode="n" horiz-adv-x="1017" d="M14 55q0 8 2 19l220 1030q14 70 88 70q64 0 63 -53q0 -10 -2 -21q-8 -41 -20 -105q147 178 364 179q154 0 240 -101q68 -76 67 -190q0 -49 -12 -105l-150 -704q-16 -76 -94 -76q-59 0 -59 57q0 8 2 19l145 688q8 33 9 63q0 90 -58.5 140.5t-146.5 50.5q-121 0 -226 -84 q-117 -94 -149 -254l-129 -604q-16 -76 -94 -76q-60 0 -60 57z" />
<glyph unicode="o" horiz-adv-x="1146" d="M104 410q0 281 172 510q190 254 467 254q190 0 293 -134q92 -119 92 -311q0 -279 -167 -504q-188 -250 -472 -250q-190 0 -292 129q-93 118 -93 306zM281 438q0 -143 57 -231q63 -98 180 -98q193 0 322 198q115 176 114 395q0 145 -57 234q-66 100 -182 100 q-190 0 -320 -200q-114 -179 -114 -398z" />
<glyph unicode="p" horiz-adv-x="1118" d="M-86 -418q0 10 2 21l317 1497q16 76 95 76q59 0 59 -62q0 -10 -2 -22l-25 -113q195 195 363 195q190 0 293 -132q92 -119 92 -311q0 -281 -170 -508q-188 -252 -471 -252q-176 0 -285 166l-114 -534q-16 -76 -95 -76q-59 0 -59 55zM258 426q0 -141 57 -227 q61 -94 181 -95q182 0 313 209q121 193 121 412q0 137 -56 219q-63 92 -180 92q-188 0 -317 -205q-119 -184 -119 -405z" />
<glyph unicode="q" horiz-adv-x="1128" d="M106 420q0 281 170 506q186 248 467 248q197 0 275 -195q6 25 22 102q23 96 97 97q59 0 59 -64q0 -12 -2 -24l-315 -1487q-16 -76 -95 -76q-61 0 -61 55q0 10 2 21l115 540q-145 -168 -353 -168q-186 0 -288 134q-93 118 -93 311zM281 432q0 -141 55 -227q63 -96 180 -96 q186 0 315 204q119 188 119 408q0 139 -55 221q-63 94 -182 94q-188 0 -316 -202q-116 -183 -116 -402z" />
<glyph unicode="r" horiz-adv-x="636" d="M14 59q0 10 2 19l215 1012q18 86 95 86q59 0 59 -60q0 -10 -2 -22l-31 -146q188 225 312 226q88 0 88 -84q0 -12 -2 -25q-10 -51 -115 -88q-143 -49 -201 -92q-115 -90 -153 -271l-115 -536q-16 -76 -90 -76q-62 0 -62 57z" />
<glyph unicode="s" horiz-adv-x="970" d="M41 182q0 41 30.5 79t63.5 38q29 0 45 -33q29 -53 122 -97t190 -44q197 0 235 182q4 12 4 27q0 80 -135 149q-127 61 -252 123q-135 86 -135 201q0 25 4 49q35 160 164 244q115 74 270 74q221 0 342 -121q20 -20 21 -54q0 -37 -26 -67.5t-60 -30.5q-23 0 -43 14 q-49 37 -131 68q-96 37 -177 37q-158 0 -188 -146q-1 -6 -1 -12q0 -58 122 -123q256 -133 264 -139q143 -98 143 -221q0 -25 -4 -51q-37 -168 -186 -265q-133 -86 -307 -86q-258 0 -363 162q-12 18 -12 43z" />
<glyph unicode="t" horiz-adv-x="645" d="M190 55q0 8 3 19l194 921h-102q-59 0 -60 56q0 31 24 57q22 25 57 25h5h107l65 309q16 76 92 76q62 0 63 -52q0 -11 -3 -24l-66 -309h99q68 0 67 -56q0 -33 -25.5 -58.5t-66.5 -25.5l-102 2l-197 -921q-16 -76 -94 -76q-60 0 -60 57z" />
<glyph unicode="u" horiz-adv-x="1021" d="M66 268q0 39 8 82l151 711q16 76 90 76q62 0 63 -52q0 -11 -3 -24l-139 -662q-8 -39 -9 -73q0 -102 63.5 -157.5t158.5 -55.5q115 0 208 71q106 82 136 215l139 662q16 76 90 76q64 0 64 -54q0 -10 -3 -22l-151 -711q-47 -219 -268 -319q-121 -55 -238 -55q-80 0 -158 26 q-202 67 -202 266z" />
<glyph unicode="v" horiz-adv-x="980" d="M225 1032q-1 7 0 13q0 36 20 61q24 29 58 29q66 0 76 -86l90 -795l442 797q49 88 109 88q51 0 51 -56q0 -23 -14 -49l-541 -973q-35 -63 -102 -63q-61 0 -70 63z" />
<glyph unicode="w" horiz-adv-x="1718" d="M223 1001q-2 13 -1 25q0 47 26 78q27 33 69 33q63 0 70 -64l82 -819l459 809q41 72 98 72q61 0 70 -72l98 -809l455 821q33 63 98 64q61 0 61 -58q0 -33 -26 -77l-539 -926q-45 -76 -104 -76t-70 82l-90 827l-442 -833q-43 -78 -115 -78q-74 0 -84 84z" />
<glyph unicode="x" horiz-adv-x="1067" d="M12 51q0 47 56 105l432 456l-207 389q-12 20 -12 43q0 37 29.5 64t66.5 27q49 0 69 -45l175 -359l329 361q41 45 88 45q66 0 66 -58q0 -37 -39 -75l-381 -379l242 -461q20 -39 20 -74q0 -41 -24.5 -66.5t-57.5 -25.5q-55 0 -88 65l-217 426l-397 -428q-53 -57 -103 -57 q-47 0 -47 47z" />
<glyph unicode="y" horiz-adv-x="1007" d="M111 -412q0 29 20 64l236 403l-144 955q-2 12 -1 23q0 42 24 71q27 31 67 31q63 0 72 -72l90 -809l465 819q35 63 98 64q59 0 60 -56q0 -29 -21 -63l-807 -1415q-39 -70 -102 -70q-57 0 -57 55z" />
<glyph unicode="z" horiz-adv-x="972" d="M14 59q0 43 58 107l727 815h-488q-61 0 -61 59q0 37 26.5 66t67.5 29h625q80 0 80 -50q0 -47 -68 -120l-745 -815h573q61 0 61 -58q0 -35 -26.5 -63.5t-67.5 -28.5h-657q-105 0 -105 59z" />
<glyph unicode="{" horiz-adv-x="739" d="M150 700q0 8 4 19q6 35 42.5 49t73.5 27q115 43 174 292q23 139 45 281q25 121 121 152q45 16 197 16q55 0 55 -53q0 -63 -100 -64q-55 0 -80 -16q-41 -25 -57 -100q-20 -109 -43 -220q-29 -129 -76 -211q-63 -104 -174 -159q113 -37 112 -203q0 -78 -24 -193 q-20 -82 -39 -161q-8 -39 -8 -68q0 -57 37 -76q16 -6 71.5 -9t55.5 -46q0 -25 -22.5 -47.5t-57.5 -22.5q-137 0 -178 15q-72 25 -72 110q0 33 10 76q23 96 47 191q35 143 35 229q0 113 -59 143q-6 2 -60 17q-30 5 -30 32z" />
<glyph unicode="|" horiz-adv-x="342" d="M6 18q0 8 2 21l330 1546q18 88 94 88q57 0 57 -61q0 -12 -2 -27l-329 -1546q-16 -78 -92 -78q-60 0 -60 57z" />
<glyph unicode="}" horiz-adv-x="739" d="M-12 -66q0 -47 55 -47q158 0 209 23q88 39 117 178q29 152 57 305q55 215 158 258q37 8 72.5 17.5t43.5 50.5q8 35 -22.5 49t-63.5 27q-63 29 -63 151q0 98 41 256q25 84 49 166q6 31 6 53q0 84 -80 105q-37 10 -174 10q-29 0 -55.5 -24.5t-26.5 -49.5q0 -43 78 -43 q94 0 94 -69q0 -20 -6 -47q-23 -92 -43 -185q-25 -111 -24 -182q0 -154 108 -223q-102 -31 -168 -142q-47 -84 -80 -221q-18 -98 -37 -194q-23 -104 -73 -136q-25 -14 -92 -18q-80 -2 -80 -68z" />
<glyph unicode="~" horiz-adv-x="1193" d="M96 442q0 100 119 185q109 78 213 78q106 0 231 -85t170 -85q66 0 131.5 83.5t118.5 83.5q57 0 58 -53q0 -16 -4 -37q-23 -102 -142 -170q-104 -61 -211 -61q-94 0 -204.5 81t-169.5 81q-63 0 -140.5 -81t-118.5 -81q-51 0 -51 61z" />
<glyph unicode="&#xa3;" horiz-adv-x="1323" d="M92 76q10 43 109 127q123 106 172 176q90 127 90 280q0 25 -2 54h-234q-61 0 -61 55q0 35 26.5 64.5t67.5 29.5h182q-53 109 -53 221q0 188 135 316q143 137 383 137q371 0 432 -336q8 -47 -22.5 -85t-69.5 -38q-51 0 -67 64q-31 119 -62 157q-72 86 -244 86 q-160 0 -239 -94q-66 -80 -66 -215q0 -109 41 -213h273q61 0 61 -57q0 -35 -25.5 -63.5t-66.5 -28.5h-236q4 -41 5 -80q0 -256 -295 -477h761q61 0 62 -62q0 -33 -25.5 -61.5t-68.5 -28.5h-895q-82 0 -68 72z" />
<glyph unicode="&#xa4;" horiz-adv-x="1579" d="M125 584q0 45 45 82l352 288q-16 188 86 371l-235 297q-16 20 -17 47q0 35 28 63.5t62 28.5q35 0 60 -30l209 -265q137 133 311 133q180 0 262 -139l328 271q37 31 72 30q59 0 59 -59q0 -45 -45 -80l-361 -299q8 -10 9 -39q0 -94 -82 -328l231 -290q16 -23 17 -50 q0 -35 -28 -63.5t-63 -28.5t-59 31l-199 254q-143 -154 -336 -154q-190 0 -270 152l-305 -252q-39 -31 -72 -31q-59 1 -59 60zM659 1022q0 -113 48 -182q51 -76 145 -76q154 0 256 154q90 137 90 307q0 115 -49 189.5t-143 74.5q-152 0 -254 -156q-93 -139 -93 -311z" />
<glyph unicode="&#xa5;" horiz-adv-x="1200" d="M176 532q0 37 31 67t78 30h264l18 84l-43 121h-245q-74 0 -74 57q0 37 30.5 66.5t75.5 29.5h158l-152 432q-6 16 -6 33q0 39 27 65.5t57 26.5q39 0 56 -43l237 -622l504 622q33 43 80 43q53 0 53 -49q0 -33 -35 -76l-346 -432h164q74 0 74 -61q0 -37 -29 -64.5t-78 -27.5 h-256l-98 -121l-16 -84h266q74 0 73 -62q0 -37 -29.5 -64.5t-76.5 -27.5h-268l-84 -403q-20 -88 -97 -88q-61 0 -61 63q0 12 2 25l86 403h-264q-76 0 -76 57z" />
<glyph unicode="&#xa6;" horiz-adv-x="342" d="M14 55q0 8 2 19l142 663q8 43 38.5 68.5t63.5 25.5q53 0 53 -53q0 -10 -2 -22l-145 -682q-16 -76 -92 -76q-60 0 -60 57zM207 963q0 10 2 20l131 616q8 43 40 69t64 26q51 0 52 -56q0 -10 -2 -22l-136 -633q-16 -76 -92 -76q-59 1 -59 56z" />
<glyph unicode="&#xa7;" horiz-adv-x="1251" d="M27 -197q0 31 6 64q23 98 92 98q72 0 65 -110q-4 -78 78 -125q76 -45 185 -45t196 49q109 59 109 157q0 84 -166 179q-291 162 -307 176q-166 121 -166 274q0 35 8 72q25 121 121 218t221 134q-106 78 -107 199q0 27 5 57q29 152 188 254q150 96 326 96q162 0 258 -86 q111 -98 100 -280q-2 -33 -28.5 -54.5t-59.5 -21.5q-70 0 -74 76q-6 100 -78 153q-63 47 -163 47q-98 0 -193 -49q-111 -59 -111 -151q0 -86 166 -180q154 -88 308 -175q166 -119 165 -266q0 -33 -6 -65q-49 -227 -313 -377q82 -90 82 -199q0 -31 -6 -59q-33 -156 -193 -248 q-141 -82 -323 -82q-162 0 -269 68q-116 73 -116 202zM281 551q0 -92 90 -145l362 -218q113 63 188.5 158.5t75.5 183.5q0 102 -106 164l-287 168q-129 -25 -226 -119t-97 -192z" />
<glyph unicode="&#xa8;" horiz-adv-x="778" d="M287 1337q0 47 35.5 89t89.5 42q96 0 96 -84q0 -47 -38 -89t-95 -42q-88 0 -88 84zM655 1339q0 49 35 89t90 40q96 0 97 -84q0 -49 -38 -90t-98 -41q-86 0 -86 86z" />
<glyph unicode="&#xa9;" horiz-adv-x="1744" d="M139 567q0 354 254 639q283 311 705 312q309 0 479 -179q152 -164 152 -421q0 -356 -254 -637q-281 -309 -707 -310q-309 0 -477 179q-152 159 -152 417zM299 596q0 -213 121 -344q131 -147 377 -148q340 0 565 261q207 238 207 532q0 211 -121 342q-133 145 -379 145 q-340 0 -565 -258q-205 -235 -205 -530zM459 633q0 221 149 393q166 190 424 191q276 0 332 -273q4 -29 -23.5 -50.5t-62.5 -21.5q-55 0 -68 52q-14 72 -71.5 115.5t-134.5 43.5q-172 0 -283 -141q-100 -125 -100 -287q0 -115 57 -188q63 -80 178 -80q117 0 209 62 q55 37 119 112q49 61 65 62q35 0 35 -66q0 -33 -14 -49q-82 -106 -201 -178q-127 -76 -242 -76q-180 0 -278 115q-90 102 -90 264z" />
<glyph unicode="&#xaa;" horiz-adv-x="669" d="M258 1169q0 141 86 265q94 133 223 133q113 0 146 -103q2 20 14 64.5t45 44.5q41 0 33 -39l-115 -530q-8 -39 -47 -39q-33 0 -29 39q4 14 11 40q-78 -76 -199 -75q-168 -1 -168 200zM342 1188q0 -152 113 -152q94 0 163 101q63 92 64 198q0 154 -131 154q-88 0 -152 -100 q-57 -92 -57 -201z" />
<glyph unicode="&#xab;" horiz-adv-x="872" d="M117 545q0 33 43 84l270 334q20 25 51 24q27 0 47.5 -18.5t20.5 -42.5q0 -25 -21 -47l-266 -318q18 -47 135 -360q8 -25 -25.5 -47.5t-70.5 -22.5q-33 0 -43 25l-129 333q-12 36 -12 56zM436 541q0 39 39 88l277 334q18 23 57 22q70 0 70 -51q0 -27 -27 -55l-268 -318 q20 -49 135 -360q8 -23 -26 -46.5t-70 -23.5q-33 0 -43 25l-134 333q-10 29 -10 52z" />
<glyph unicode="&#xac;" horiz-adv-x="1314" d="M119 549q0 35 30.5 65.5t75.5 30.5h949q68 0 67 -67q0 -14 -2 -29l-65 -303q-18 -88 -93 -88q-66 0 -65 65q0 10 4 23l51 243h-878q-74 1 -74 60z" />
<glyph unicode="&#xad;" horiz-adv-x="761" d="M125 549q0 35 30.5 65.5t77.5 30.5h422q72 0 72 -63q0 -35 -28.5 -64t-77.5 -29h-420q-76 1 -76 60z" />
<glyph unicode="&#xae;" horiz-adv-x="1742" d="M143 586q0 354 254 637q279 313 701 313q311 0 479 -180q154 -164 154 -422q0 -354 -254 -637q-281 -309 -707 -309q-309 0 -475 178q-152 162 -152 420zM301 610q0 -211 119 -342q133 -147 379 -147q340 0 565 260q207 238 207 532q0 211 -121 342q-133 147 -379 148 q-340 0 -565 -262q-205 -236 -205 -531zM545 338l166 778q10 49 29.5 66.5t70.5 17.5h299q113 0 178.5 -62.5t65.5 -150.5q0 -94 -70 -170q-76 -88 -215 -123q41 -90 82 -182q66 -150 59 -176q-12 -61 -84 -62q-57 0 -79 64l-127 356h-166l-76 -356q-14 -63 -84 -64 q-63 1 -49 64zM778 811h234q86 0 141 51q49 47 49 109q0 113 -133 112h-233z" />
<glyph unicode="&#xaf;" horiz-adv-x="1372" d="M360 1694q0 31 27 56.5t68 25.5h1024q66 0 65 -58q0 -29 -25.5 -53.5t-68.5 -24.5h-1024q-66 1 -66 54z" />
<glyph unicode="&#xb0;" horiz-adv-x="593" d="M303 1399q0 92 64 162q72 80 184 79q162 0 162 -151q0 -94 -68 -172q-74 -84 -180 -84q-78 0 -120 48t-42 118zM406 1415q0 -80 86 -80q51 0 83.5 39t32.5 84q0 78 -80 78q-53 0 -87.5 -38t-34.5 -83z" />
<glyph unicode="&#xb1;" d="M78 59q0 37 30.5 67t77.5 30h916q74 0 74 -62q0 -37 -29 -64.5t-78 -27.5h-915q-76 0 -76 57zM215 719q0 41 27.5 72.5t74.5 31.5h375l80 383q18 80 94 80q37 0 58.5 -21.5t15.5 -58.5l-82 -383h371q86 0 86 -71q0 -37 -33 -68t-90 -31h-371l-86 -403q-16 -78 -102 -78 q-66 0 -66 59q0 8 2 19l86 403h-374q-66 0 -66 66z" />
<glyph unicode="&#xb2;" horiz-adv-x="641" d="M205 932q0 20 26 43l361 377q70 76 70 141q0 45 -31 72.5t-76 27.5q-127 0 -168 -166q-14 -57 -53 -57q-31 0 -31 41q0 10 2 23q25 115 105 176q70 55 157 55q76 0 130.5 -42t54.5 -112q0 -100 -115 -217l-311 -319h276q45 0 45 -33q0 -43 -61 -43h-328q-53 0 -53 33z " />
<glyph unicode="&#xb3;" horiz-adv-x="643" d="M221 1014q-6 27 10.5 50t38.5 23q18 0 27 -22q23 -55 33 -68q31 -39 92 -39q78 0 127 55.5t49 123.5q0 109 -106 112q-39 2 -39 33q0 43 53 43t93 54.5t40 113.5q0 92 -92 92q-88 0 -119 -117q-12 -43 -51 -43q-45 0 -33 52q18 86 90 137q66 47 154 47q63 0 99 -44 t36 -110q0 -133 -115 -215q86 -41 86 -133q0 -98 -87 -188t-204 -90q-149 0 -182 133z" />
<glyph unicode="&#xb5;" horiz-adv-x="1019" d="M-90 -430q0 10 4 20l311 1471q16 76 92 76q59 0 60 -58q0 -8 -2 -18l-144 -674q-6 -31 -6 -59q0 -88 59.5 -137.5t147.5 -49.5q121 0 225 82q117 94 150 250l125 588q16 76 92 76q61 0 61 -58q0 -8 -4 -18l-204 -973q-20 -90 -95 -90q-59 0 -59 61q0 8 2 19q4 25 14 78 q-152 -174 -360 -174q-129 0 -217 77l-99 -469q-16 -76 -94 -75q-59 0 -59 55z" />
<glyph unicode="&#xb6;" horiz-adv-x="1116" d="M238 1090q0 29 6 57q39 182 229 297q168 100 356 100h422l-28 -135h-101l-297 -1401h-137l297 1401h-154l-299 -1401h-133l172 807h-4q-129 0 -229 77t-100 198zM293 1038l47 228h47l29 -193l108 193h47l-49 -228h-28l38 191l-110 -191h-29l-31 197l-40 -197h-29z M557 977l2 24q43 -10 64 -10q51 0 61 41l8 45q-20 -35 -69 -35q-61 0 -62 64q0 113 125 113q33 0 68 -9l-39 -182q-12 -59 -92 -59q-33 0 -66 8zM592 1124q-12 -59 43 -59q57 0 70 59l14 68q-18 2 -35 2q-76 0 -92 -70z" />
<glyph unicode="&#xb9;" d="M694 59q0 8 2 19l273 1288h-199q-76 0 -76 61q0 35 29 62t76 27h252q86 0 86 -54q0 -18 -17 -88l-274 -1296q-16 -78 -90 -78q-62 0 -62 59z" />
<glyph unicode="&#xba;" horiz-adv-x="1146" d="M104 410q0 281 172 510q190 254 467 254q190 0 293 -134q92 -119 92 -311q0 -279 -167 -504q-188 -250 -472 -250q-190 0 -292 129q-93 118 -93 306zM281 438q0 -143 57 -231q63 -98 180 -98q193 0 322 198q115 176 114 395q0 145 -57 234q-66 100 -182 100 q-190 0 -320 -200q-114 -179 -114 -398z" />
<glyph unicode="&#xbb;" horiz-adv-x="876" d="M37 172q0 12 10 25l293 364q-18 45 -139 359q-2 4 -2 10q0 25 29.5 44t62.5 19q39 0 51 -30l129 -334q12 -33 12 -54q0 -33 -43 -86l-270 -333q-18 -23 -61 -23q-72 0 -72 39zM354 170q0 12 13 27l295 364l-138 318q-10 23 -10 41q0 74 86 73q45 0 57 -30l138 -334 q10 -27 10 -49q0 -41 -41 -91l-279 -333q-16 -23 -63 -23q-68 0 -68 37z" />
<glyph unicode="&#xbd;" horiz-adv-x="1073" d="M242 487l141 666h-92q-39 0 -39 31q0 43 47 43h125q43 0 43 -27q0 -8 -8 -43l-142 -670q-8 -37 -47 -36q-36 -1 -28 36zM283 381l432 698q20 35 43 35q25 0 24 -27q0 -10 -6 -22q-197 -324 -434 -717q-14 -25 -45 -24q-53 0 -14 57zM446 33q0 20 27 43l358 377 q70 76 70 141q0 45 -30.5 72.5t-75.5 27.5q-127 0 -168 -166q-14 -57 -54 -57q-31 0 -30 41q0 10 2 20q25 115 104 179q70 55 160 55q76 0 129 -42t53 -112q0 -100 -114 -217l-312 -319h279q45 0 45 -33q0 -43 -62 -43h-329q-52 0 -52 33z" />
<glyph unicode="&#xc0;" horiz-adv-x="1327" d="M891 1712q-20 25 2 59l205 320q31 45 86 45q74 0 73 -51q0 -16 -10 -31l-205 -315q-33 -49 -94 -50q-39 0 -57 23zM12 49q0 29 21 64l741 1310q53 92 139 93q82 0 97 -93l202 -1310q2 -12 2 -24q0 -37 -21 -60q-28 -31 -67 -31q-55 0 -63 51l-41 256h-723l-125 -227 q-43 -80 -108 -80q-54 0 -54 51zM385 473h606l-123 834z" />
<glyph unicode="&#xc2;" horiz-adv-x="1327" d="M409 1741q0 37 35 82l629 807q41 51 96 51q53 0 72 -51l268 -807q6 -20 6 -39q0 -39 -24.5 -66.5t-59.5 -27.5q-61 0 -88 84l-221 690l-534 -690q-63 -82 -127 -82q-52 0 -52 49zM12 49q0 29 21 64l741 1310q53 92 139 93q82 0 97 -93l202 -1310q2 -12 2 -24 q0 -37 -21 -60q-28 -31 -67 -31q-55 0 -63 51l-41 256h-723l-125 -227q-43 -80 -108 -80q-54 0 -54 51zM385 473h606l-123 834z" />
<glyph unicode="&#xc3;" horiz-adv-x="1327" d="M458 1751q0 100 119 185q109 78 213 78q106 0 231 -85t170 -85q66 0 131.5 83.5t118.5 83.5q57 0 58 -53q0 -16 -4 -37q-23 -102 -142 -170q-104 -61 -211 -61q-94 0 -204.5 81t-169.5 81q-63 0 -140.5 -81t-118.5 -81q-51 0 -51 61zM12 49q0 29 21 64l741 1310 q53 92 139 93q82 0 97 -93l202 -1310q2 -12 2 -24q0 -37 -21 -60q-28 -31 -67 -31q-55 0 -63 51l-41 256h-723l-125 -227q-43 -80 -108 -80q-54 0 -54 51zM385 473h606l-123 834z" />
<glyph unicode="&#xc4;" horiz-adv-x="1327" d="M674 1773q0 47 35.5 89t89.5 42q96 0 96 -84q0 -47 -38 -89t-95 -42q-88 0 -88 84zM1042 1775q0 49 35 89t90 40q96 0 97 -84q0 -49 -38 -90t-98 -41q-86 0 -86 86zM12 49q0 29 21 64l741 1310q53 92 139 93q82 0 97 -93l202 -1310q2 -12 2 -24q0 -37 -21 -60 q-28 -31 -67 -31q-55 0 -63 51l-41 256h-723l-125 -227q-43 -80 -108 -80q-54 0 -54 51zM385 473h606l-123 834z" />
<glyph unicode="&#xc5;" horiz-adv-x="1327" d="M760 1718q0 92 64 162q72 80 184 79q162 0 162 -151q0 -94 -68 -172q-74 -84 -180 -84q-78 0 -120 48t-42 118zM863 1734q0 -80 86 -80q51 0 83.5 39t32.5 84q0 78 -80 78q-53 0 -87.5 -38t-34.5 -83zM12 49q0 29 21 64l741 1310q53 92 139 93q82 0 97 -93l202 -1310 q2 -12 2 -24q0 -37 -21 -60q-28 -31 -67 -31q-55 0 -63 51l-41 256h-723l-125 -227q-43 -80 -108 -80q-54 0 -54 51zM385 473h606l-123 834z" />
<glyph unicode="&#xc8;" horiz-adv-x="806" d="M643 1712q-20 25 2 59l205 320q31 45 86 45q74 0 73 -51q0 -16 -10 -31l-205 -315q-33 -49 -94 -50q-39 0 -57 23zM12 43q0 14 8 49l283 1331q18 92 103 93h522q59 0 59 -60q0 -35 -22 -59q-29 -31 -70 -31h-455l-106 -504h436q61 0 61 -59q0 -35 -22 -62 q-29 -29 -70 -28h-438l-119 -563h471q74 0 74 -62q0 -35 -28.5 -61.5t-77.5 -26.5h-537q-72 0 -72 43z" />
<glyph unicode="&#xca;" horiz-adv-x="806" d="M161 1741q0 37 35 82l629 807q41 51 96 51q53 0 72 -51l268 -807q6 -20 6 -39q0 -39 -24.5 -66.5t-59.5 -27.5q-61 0 -88 84l-221 690l-534 -690q-63 -82 -127 -82q-52 0 -52 49zM12 43q0 14 8 49l283 1331q18 92 103 93h522q59 0 59 -60q0 -35 -22 -59q-29 -31 -70 -31 h-455l-106 -504h436q61 0 61 -59q0 -35 -22 -62q-29 -29 -70 -28h-438l-119 -563h471q74 0 74 -62q0 -35 -28.5 -61.5t-77.5 -26.5h-537q-72 0 -72 43z" />
<glyph unicode="&#xcb;" horiz-adv-x="806" d="M426 1773q0 47 35.5 89t89.5 42q96 0 96 -84q0 -47 -38 -89t-95 -42q-88 0 -88 84zM794 1775q0 49 35 89t90 40q96 0 97 -84q0 -49 -38 -90t-98 -41q-86 0 -86 86zM12 43q0 14 8 49l283 1331q18 92 103 93h522q59 0 59 -60q0 -35 -22 -59q-29 -31 -70 -31h-455l-106 -504 h436q61 0 61 -59q0 -35 -22 -62q-29 -29 -70 -28h-438l-119 -563h471q74 0 74 -62q0 -35 -28.5 -61.5t-77.5 -26.5h-537q-72 0 -72 43z" />
<glyph unicode="&#xcc;" horiz-adv-x="329" d="M373 1712q-20 25 2 59l205 320q31 45 86 45q74 0 73 -51q0 -16 -10 -31l-205 -315q-33 -49 -94 -50q-39 0 -57 23zM14 57q0 8 2 19l291 1368q16 76 90 76q62 0 63 -52q0 -11 -3 -24l-291 -1368q-16 -76 -92 -76q-60 0 -60 57z" />
<glyph unicode="&#xce;" horiz-adv-x="329" d="M-109 1741q0 37 35 82l629 807q41 51 96 51q53 0 72 -51l268 -807q6 -20 6 -39q0 -39 -24.5 -66.5t-59.5 -27.5q-61 0 -88 84l-221 690l-534 -690q-63 -82 -127 -82q-52 0 -52 49zM14 57q0 8 2 19l291 1368q16 76 90 76q62 0 63 -52q0 -11 -3 -24l-291 -1368 q-16 -76 -92 -76q-60 0 -60 57z" />
<glyph unicode="&#xcf;" horiz-adv-x="329" d="M158 1773q0 47 35.5 89t89.5 42q96 0 96 -84q0 -47 -38 -89t-95 -42q-88 0 -88 84zM526 1775q0 49 35 89t90 40q96 0 97 -84q0 -49 -38 -90t-98 -41q-86 0 -86 86zM14 57q0 8 2 19l291 1368q16 76 90 76q62 0 63 -52q0 -11 -3 -24l-291 -1368q-16 -76 -92 -76 q-60 0 -60 57z" />
<glyph unicode="&#xd1;" horiz-adv-x="1306" d="M-60 1751q0 100 119 185q109 78 213 78q106 0 231 -85t170 -85q66 0 131.5 83.5t118.5 83.5q57 0 58 -53q0 -16 -4 -37q-23 -102 -142 -170q-104 -61 -211 -61q-94 0 -204.5 81t-169.5 81q-63 0 -140.5 -81t-118.5 -81q-51 0 -51 61zM14 59q0 8 2 19l287 1352 q20 90 94 90q55 0 90 -74l549 -1176l248 1170q16 78 90 78q61 0 62 -60q0 -8 -2 -18l-287 -1350q-18 -92 -94 -92q-57 0 -88 63l-553 1172l-246 -1155q-16 -80 -90 -80q-62 0 -62 61z" />
<glyph unicode="&#xd2;" horiz-adv-x="1468" d="M952 1712q-20 25 2 59l205 320q31 45 86 45q74 0 73 -51q0 -16 -10 -31l-205 -315q-33 -49 -94 -50q-39 0 -57 23zM141 555q0 371 228 676q250 336 616 336q256 0 393 -172q125 -156 125 -408q0 -373 -231 -676q-254 -336 -625 -336q-250 0 -385 172q-121 156 -121 408z M315 584q0 -201 88 -322q96 -135 275 -135q281 0 475 276q174 252 174 555q0 201 -88 322q-100 137 -287 137q-276 0 -465 -278q-172 -252 -172 -555z" />
<glyph unicode="&#xd4;" horiz-adv-x="1468" d="M471 1741q0 37 35 82l629 807q41 51 96 51q53 0 72 -51l268 -807q6 -20 6 -39q0 -39 -24.5 -66.5t-59.5 -27.5q-61 0 -88 84l-221 690l-534 -690q-63 -82 -127 -82q-52 0 -52 49zM141 555q0 371 228 676q250 336 616 336q256 0 393 -172q125 -156 125 -408 q0 -373 -231 -676q-254 -336 -625 -336q-250 0 -385 172q-121 156 -121 408zM315 584q0 -201 88 -322q96 -135 275 -135q281 0 475 276q174 252 174 555q0 201 -88 322q-100 137 -287 137q-276 0 -465 -278q-172 -252 -172 -555z" />
<glyph unicode="&#xd5;" horiz-adv-x="1468" d="M520 1751q0 100 119 185q109 78 213 78q106 0 231 -85t170 -85q66 0 131.5 83.5t118.5 83.5q57 0 58 -53q0 -16 -4 -37q-23 -102 -142 -170q-104 -61 -211 -61q-94 0 -204.5 81t-169.5 81q-63 0 -140.5 -81t-118.5 -81q-51 0 -51 61zM141 555q0 371 228 676 q250 336 616 336q256 0 393 -172q125 -156 125 -408q0 -373 -231 -676q-254 -336 -625 -336q-250 0 -385 172q-121 156 -121 408zM315 584q0 -201 88 -322q96 -135 275 -135q281 0 475 276q174 252 174 555q0 201 -88 322q-100 137 -287 137q-276 0 -465 -278 q-172 -252 -172 -555z" />
<glyph unicode="&#xd6;" horiz-adv-x="1468" d="M736 1773q0 47 35.5 89t89.5 42q96 0 96 -84q0 -47 -38 -89t-95 -42q-88 0 -88 84zM1104 1775q0 49 35 89t90 40q96 0 97 -84q0 -49 -38 -90t-98 -41q-86 0 -86 86zM141 555q0 371 228 676q250 336 616 336q256 0 393 -172q125 -156 125 -408q0 -373 -231 -676 q-254 -336 -625 -336q-250 0 -385 172q-121 156 -121 408zM315 584q0 -201 88 -322q96 -135 275 -135q281 0 475 276q174 252 174 555q0 201 -88 322q-100 137 -287 137q-276 0 -465 -278q-172 -252 -172 -555z" />
<glyph unicode="&#xd9;" horiz-adv-x="1335" d="M881 1712q-20 25 2 59l205 320q31 45 86 45q74 0 73 -51q0 -16 -10 -31l-205 -315q-33 -49 -94 -50q-39 0 -57 23zM94 381q0 57 12 121l197 928q18 88 103 88q68 0 67 -66q0 -10 -2 -22l-195 -912q-8 -43 -8 -84q0 -201 193 -276q80 -31 161 -31q107 0 218 53 q215 100 266 338l192 912q18 88 105 88q68 0 67 -66q0 -10 -2 -22l-198 -928q-51 -246 -269 -393q-195 -133 -432 -134q-203 0 -333 101q-142 110 -142 305z" />
<glyph unicode="&#xdb;" horiz-adv-x="1335" d="M399 1741q0 37 35 82l629 807q41 51 96 51q53 0 72 -51l268 -807q6 -20 6 -39q0 -39 -24.5 -66.5t-59.5 -27.5q-61 0 -88 84l-221 690l-534 -690q-63 -82 -127 -82q-52 0 -52 49zM94 381q0 57 12 121l197 928q18 88 103 88q68 0 67 -66q0 -10 -2 -22l-195 -912 q-8 -43 -8 -84q0 -201 193 -276q80 -31 161 -31q107 0 218 53q215 100 266 338l192 912q18 88 105 88q68 0 67 -66q0 -10 -2 -22l-198 -928q-51 -246 -269 -393q-195 -133 -432 -134q-203 0 -333 101q-142 110 -142 305z" />
<glyph unicode="&#xdc;" horiz-adv-x="1335" d="M664 1773q0 47 35.5 89t89.5 42q96 0 96 -84q0 -47 -38 -89t-95 -42q-88 0 -88 84zM1032 1775q0 49 35 89t90 40q96 0 97 -84q0 -49 -38 -90t-98 -41q-86 0 -86 86zM94 381q0 57 12 121l197 928q18 88 103 88q68 0 67 -66q0 -10 -2 -22l-195 -912q-8 -43 -8 -84 q0 -201 193 -276q80 -31 161 -31q107 0 218 53q215 100 266 338l192 912q18 88 105 88q68 0 67 -66q0 -10 -2 -22l-198 -928q-51 -246 -269 -393q-195 -133 -432 -134q-203 0 -333 101q-142 110 -142 305z" />
<glyph unicode="&#xe0;" horiz-adv-x="1124" d="M1096 1323q-20 25 2 59l205 320q31 45 86 45q74 0 73 -51q0 -16 -10 -31l-205 -315q-33 -49 -94 -50q-39 0 -57 23zM96 367q0 283 174 534q190 272 449 273q100 0 185 -53.5t110 -133.5q6 29 20 100q18 90 94 91q61 0 62 -62q0 -10 -2 -20l-225 -1055q-14 -66 -89 -66 q-67 0 -67 46q0 7 2 16q8 27 22 86q-92 -88 -188 -123q-80 -27 -209 -27q-170 0 -258 115q-80 105 -80 279zM264 412q0 -133 53 -215q61 -90 175 -91q209 0 350 238q105 177 105 351q0 44 -7 87q-35 236 -254 236q-178 0 -305 -203q-117 -186 -117 -403z" />
<glyph unicode="&#xe2;" horiz-adv-x="1124" d="M614 1352q0 37 35 82l629 807q41 51 96 51q53 0 72 -51l268 -807q6 -20 6 -39q0 -39 -24.5 -66.5t-59.5 -27.5q-61 0 -88 84l-221 690l-534 -690q-63 -82 -127 -82q-52 0 -52 49zM96 367q0 283 174 534q190 272 449 273q100 0 185 -53.5t110 -133.5q6 29 20 100 q18 90 94 91q61 0 62 -62q0 -10 -2 -20l-225 -1055q-14 -66 -89 -66q-67 0 -67 46q0 7 2 16q8 27 22 86q-92 -88 -188 -123q-80 -27 -209 -27q-170 0 -258 115q-80 105 -80 279zM264 412q0 -133 53 -215q61 -90 175 -91q209 0 350 238q105 177 105 351q0 44 -7 87 q-35 236 -254 236q-178 0 -305 -203q-117 -186 -117 -403z" />
<glyph unicode="&#xe3;" horiz-adv-x="1124" d="M663 1362q0 100 119 185q109 78 213 78q106 0 231 -85t170 -85q66 0 131.5 83.5t118.5 83.5q57 0 58 -53q0 -16 -4 -37q-23 -102 -142 -170q-104 -61 -211 -61q-94 0 -204.5 81t-169.5 81q-63 0 -140.5 -81t-118.5 -81q-51 0 -51 61zM96 367q0 283 174 534 q190 272 449 273q100 0 185 -53.5t110 -133.5q6 29 20 100q18 90 94 91q61 0 62 -62q0 -10 -2 -20l-225 -1055q-14 -66 -89 -66q-67 0 -67 46q0 7 2 16q8 27 22 86q-92 -88 -188 -123q-80 -27 -209 -27q-170 0 -258 115q-80 105 -80 279zM264 412q0 -133 53 -215 q61 -90 175 -91q209 0 350 238q105 177 105 351q0 44 -7 87q-35 236 -254 236q-178 0 -305 -203q-117 -186 -117 -403z" />
<glyph unicode="&#xe4;" horiz-adv-x="1124" d="M879 1384q0 47 35.5 89t89.5 42q96 0 96 -84q0 -47 -38 -89t-95 -42q-88 0 -88 84zM1247 1386q0 49 35 89t90 40q96 0 97 -84q0 -49 -38 -90t-98 -41q-86 0 -86 86zM96 367q0 283 174 534q190 272 449 273q100 0 185 -53.5t110 -133.5q6 29 20 100q18 90 94 91 q61 0 62 -62q0 -10 -2 -20l-225 -1055q-14 -66 -89 -66q-67 0 -67 46q0 7 2 16q8 27 22 86q-92 -88 -188 -123q-80 -27 -209 -27q-170 0 -258 115q-80 105 -80 279zM264 412q0 -133 53 -215q61 -90 175 -91q209 0 350 238q105 177 105 351q0 44 -7 87q-35 236 -254 236 q-178 0 -305 -203q-117 -186 -117 -403z" />
<glyph unicode="&#xe5;" horiz-adv-x="1124" d="M989 1467q0 92 64 162q72 80 184 79q162 0 162 -151q0 -94 -68 -172q-74 -84 -180 -84q-78 0 -120 48t-42 118zM1092 1483q0 -80 86 -80q51 0 83.5 39t32.5 84q0 78 -80 78q-53 0 -87.5 -38t-34.5 -83zM96 367q0 283 174 534q190 272 449 273q100 0 185 -53.5t110 -133.5 q6 29 20 100q18 90 94 91q61 0 62 -62q0 -10 -2 -20l-225 -1055q-14 -66 -89 -66q-67 0 -67 46q0 7 2 16q8 27 22 86q-92 -88 -188 -123q-80 -27 -209 -27q-170 0 -258 115q-80 105 -80 279zM264 412q0 -133 53 -215q61 -90 175 -91q209 0 350 238q105 177 105 351 q0 44 -7 87q-35 236 -254 236q-178 0 -305 -203q-117 -186 -117 -403z" />
<glyph unicode="&#xe8;" horiz-adv-x="1099" d="M713 1321q-20 25 2 59l205 320q31 45 86 45q74 0 73 -51q0 -16 -10 -31l-205 -315q-33 -49 -94 -50q-39 0 -57 23zM104 414q0 276 179 510q190 252 462 252q182 0 281.5 -97.5t99.5 -269.5q0 -68 -16 -145q-35 -166 -90 -166h-739q-8 -35 -9 -74q0 -127 78 -219 q80 -98 201 -99q113 0 244 85t149 85q61 0 62 -63q0 -31 -25 -55q-182 -184 -457 -185q-211 0 -321 131q-99 117 -99 310zM313 653h641q12 57 13 111q0 129 -71 198.5t-177 69.5q-129 0 -240 -94q-125 -107 -166 -285z" />
<glyph unicode="&#xea;" horiz-adv-x="1099" d="M231 1350q0 37 35 82l629 807q41 51 96 51q53 0 72 -51l268 -807q6 -20 6 -39q0 -39 -24.5 -66.5t-59.5 -27.5q-61 0 -88 84l-221 690l-534 -690q-63 -82 -127 -82q-52 0 -52 49zM104 414q0 276 179 510q190 252 462 252q182 0 281.5 -97.5t99.5 -269.5q0 -68 -16 -145 q-35 -166 -90 -166h-739q-8 -35 -9 -74q0 -127 78 -219q80 -98 201 -99q113 0 244 85t149 85q61 0 62 -63q0 -31 -25 -55q-182 -184 -457 -185q-211 0 -321 131q-99 117 -99 310zM313 653h641q12 57 13 111q0 129 -71 198.5t-177 69.5q-129 0 -240 -94q-125 -107 -166 -285z " />
<glyph unicode="&#xeb;" horiz-adv-x="1099" d="M496 1382q0 47 35.5 89t89.5 42q96 0 96 -84q0 -47 -38 -89t-95 -42q-88 0 -88 84zM864 1384q0 49 35 89t90 40q96 0 97 -84q0 -49 -38 -90t-98 -41q-86 0 -86 86zM104 414q0 276 179 510q190 252 462 252q182 0 281.5 -97.5t99.5 -269.5q0 -68 -16 -145 q-35 -166 -90 -166h-739q-8 -35 -9 -74q0 -127 78 -219q80 -98 201 -99q113 0 244 85t149 85q61 0 62 -63q0 -31 -25 -55q-182 -184 -457 -185q-211 0 -321 131q-99 117 -99 310zM313 653h641q12 57 13 111q0 129 -71 198.5t-177 69.5q-129 0 -240 -94q-125 -107 -166 -285z " />
<glyph unicode="&#xec;" horiz-adv-x="368" d="M395 1665q-20 25 2 59l205 320q31 45 86 45q74 0 73 -51q0 -16 -10 -31l-205 -315q-33 -49 -94 -50q-39 0 -57 23zM45 57q0 8 2 19l217 1022q14 76 90 76q64 0 65 -52q0 -11 -3 -24l-217 -1022q-16 -78 -93 -78q-61 0 -61 59zM299 1397q0 47 35 85t94 38q86 0 86 -86 q0 -49 -33 -84q-39 -39 -100 -39q-82 0 -82 86z" />
<glyph unicode="&#xee;" horiz-adv-x="368" d="M-86 1694q0 37 35 82l629 807q41 51 96 51q53 0 72 -51l268 -807q6 -20 6 -39q0 -39 -24.5 -66.5t-59.5 -27.5q-61 0 -88 84l-221 690l-534 -690q-63 -82 -127 -82q-52 0 -52 49zM45 57q0 8 2 19l217 1022q14 76 90 76q64 0 65 -52q0 -11 -3 -24l-217 -1022 q-16 -78 -93 -78q-61 0 -61 59zM299 1397q0 47 35 85t94 38q86 0 86 -86q0 -49 -33 -84q-39 -39 -100 -39q-82 0 -82 86z" />
<glyph unicode="&#xef;" horiz-adv-x="368" d="M178 1726q0 47 35.5 89t89.5 42q96 0 96 -84q0 -47 -38 -89t-95 -42q-88 0 -88 84zM546 1728q0 49 35 89t90 40q96 0 97 -84q0 -49 -38 -90t-98 -41q-86 0 -86 86zM45 57q0 8 2 19l217 1022q14 76 90 76q64 0 65 -52q0 -11 -3 -24l-217 -1022q-16 -78 -93 -78 q-61 0 -61 59zM299 1397q0 47 35 85t94 38q86 0 86 -86q0 -49 -33 -84q-39 -39 -100 -39q-82 0 -82 86z" />
<glyph unicode="&#xf1;" horiz-adv-x="1017" d="M200 1357q0 100 119 185q109 78 213 78q106 0 231 -85t170 -85q66 0 131.5 83.5t118.5 83.5q57 0 58 -53q0 -16 -4 -37q-23 -102 -142 -170q-104 -61 -211 -61q-94 0 -204.5 81t-169.5 81q-63 0 -140.5 -81t-118.5 -81q-51 0 -51 61zM14 55q0 8 2 19l220 1030 q14 70 88 70q64 0 63 -53q0 -10 -2 -21q-8 -41 -20 -105q147 178 364 179q154 0 240 -101q68 -76 67 -190q0 -49 -12 -105l-150 -704q-16 -76 -94 -76q-59 0 -59 57q0 8 2 19l145 688q8 33 9 63q0 90 -58.5 140.5t-146.5 50.5q-121 0 -226 -84q-117 -94 -149 -254l-129 -604 q-16 -76 -94 -76q-60 0 -60 57z" />
<glyph unicode="&#xf2;" horiz-adv-x="1146" d="M711 1319q-20 25 2 59l205 320q31 45 86 45q74 0 73 -51q0 -16 -10 -31l-205 -315q-33 -49 -94 -50q-39 0 -57 23zM104 410q0 281 172 510q190 254 467 254q190 0 293 -134q92 -119 92 -311q0 -279 -167 -504q-188 -250 -472 -250q-190 0 -292 129q-93 118 -93 306z M281 438q0 -143 57 -231q63 -98 180 -98q193 0 322 198q115 176 114 395q0 145 -57 234q-66 100 -182 100q-190 0 -320 -200q-114 -179 -114 -398z" />
<glyph unicode="&#xf4;" horiz-adv-x="1146" d="M229 1348q0 37 35 82l629 807q41 51 96 51q53 0 72 -51l268 -807q6 -20 6 -39q0 -39 -24.5 -66.5t-59.5 -27.5q-61 0 -88 84l-221 690l-534 -690q-63 -82 -127 -82q-52 0 -52 49zM104 410q0 281 172 510q190 254 467 254q190 0 293 -134q92 -119 92 -311 q0 -279 -167 -504q-188 -250 -472 -250q-190 0 -292 129q-93 118 -93 306zM281 438q0 -143 57 -231q63 -98 180 -98q193 0 322 198q115 176 114 395q0 145 -57 234q-66 100 -182 100q-190 0 -320 -200q-114 -179 -114 -398z" />
<glyph unicode="&#xf5;" horiz-adv-x="1146" d="M278 1357q0 100 119 185q109 78 213 78q106 0 231 -85t170 -85q66 0 131.5 83.5t118.5 83.5q57 0 58 -53q0 -16 -4 -37q-23 -102 -142 -170q-104 -61 -211 -61q-94 0 -204.5 81t-169.5 81q-63 0 -140.5 -81t-118.5 -81q-51 0 -51 61zM104 410q0 281 172 510 q190 254 467 254q190 0 293 -134q92 -119 92 -311q0 -279 -167 -504q-188 -250 -472 -250q-190 0 -292 129q-93 118 -93 306zM281 438q0 -143 57 -231q63 -98 180 -98q193 0 322 198q115 176 114 395q0 145 -57 234q-66 100 -182 100q-190 0 -320 -200q-114 -179 -114 -398z " />
<glyph unicode="&#xf6;" horiz-adv-x="1146" d="M494 1380q0 47 35.5 89t89.5 42q96 0 96 -84q0 -47 -38 -89t-95 -42q-88 0 -88 84zM862 1382q0 49 35 89t90 40q96 0 97 -84q0 -49 -38 -90t-98 -41q-86 0 -86 86zM104 410q0 281 172 510q190 254 467 254q190 0 293 -134q92 -119 92 -311q0 -279 -167 -504 q-188 -250 -472 -250q-190 0 -292 129q-93 118 -93 306zM281 438q0 -143 57 -231q63 -98 180 -98q193 0 322 198q115 176 114 395q0 145 -57 234q-66 100 -182 100q-190 0 -320 -200q-114 -179 -114 -398z" />
<glyph unicode="&#xf9;" horiz-adv-x="1021" d="M643 1319q-20 25 2 59l205 320q31 45 86 45q74 0 73 -51q0 -16 -10 -31l-205 -315q-33 -49 -94 -50q-39 0 -57 23zM66 268q0 39 8 82l151 711q16 76 90 76q62 0 63 -52q0 -11 -3 -24l-139 -662q-8 -39 -9 -73q0 -102 63.5 -157.5t158.5 -55.5q115 0 208 71 q106 82 136 215l139 662q16 76 90 76q64 0 64 -54q0 -10 -3 -22l-151 -711q-47 -219 -268 -319q-121 -55 -238 -55q-80 0 -158 26q-202 67 -202 266z" />
<glyph unicode="&#xfb;" horiz-adv-x="1021" d="M161 1348q0 37 35 82l629 807q41 51 96 51q53 0 72 -51l268 -807q6 -20 6 -39q0 -39 -24.5 -66.5t-59.5 -27.5q-61 0 -88 84l-221 690l-534 -690q-63 -82 -127 -82q-52 0 -52 49zM66 268q0 39 8 82l151 711q16 76 90 76q62 0 63 -52q0 -11 -3 -24l-139 -662 q-8 -39 -9 -73q0 -102 63.5 -157.5t158.5 -55.5q115 0 208 71q106 82 136 215l139 662q16 76 90 76q64 0 64 -54q0 -10 -3 -22l-151 -711q-47 -219 -268 -319q-121 -55 -238 -55q-80 0 -158 26q-202 67 -202 266z" />
<glyph unicode="&#xfc;" horiz-adv-x="1021" d="M426 1380q0 47 35.5 89t89.5 42q96 0 96 -84q0 -47 -38 -89t-95 -42q-88 0 -88 84zM794 1382q0 49 35 89t90 40q96 0 97 -84q0 -49 -38 -90t-98 -41q-86 0 -86 86zM66 268q0 39 8 82l151 711q16 76 90 76q62 0 63 -52q0 -11 -3 -24l-139 -662q-8 -39 -9 -73 q0 -102 63.5 -157.5t158.5 -55.5q115 0 208 71q106 82 136 215l139 662q16 76 90 76q64 0 64 -54q0 -10 -3 -22l-151 -711q-47 -219 -268 -319q-121 -55 -238 -55q-80 0 -158 26q-202 67 -202 266z" />
<glyph unicode="&#xff;" horiz-adv-x="1007" d="M797 1380q0 47 35.5 89t89.5 42q96 0 96 -84q0 -47 -38 -89t-95 -42q-88 0 -88 84zM1165 1382q0 49 35 89t90 40q96 0 97 -84q0 -49 -38 -90t-98 -41q-86 0 -86 86zM111 -412q0 29 20 64l236 403l-144 955q-2 12 -1 23q0 42 24 71q27 31 67 31q63 0 72 -72l90 -809 l465 819q35 63 98 64q59 0 60 -56q0 -29 -21 -63l-807 -1415q-39 -70 -102 -70q-57 0 -57 55z" />
<glyph unicode="&#x152;" horiz-adv-x="2275" d="M1480 43q0 14 8 49l283 1331q18 92 103 93h522q59 0 59 -60q0 -35 -22 -59q-29 -31 -70 -31h-455l-106 -504h436q61 0 61 -59q0 -35 -22 -62q-29 -29 -70 -28h-438l-119 -563h471q74 0 74 -62q0 -35 -28.5 -61.5t-77.5 -26.5h-537q-72 0 -72 43zM141 555q0 371 228 676 q250 336 616 336q256 0 393 -172q125 -156 125 -408q0 -373 -231 -676q-254 -336 -625 -336q-250 0 -385 172q-121 156 -121 408zM315 584q0 -201 88 -322q96 -135 275 -135q281 0 475 276q174 252 174 555q0 201 -88 322q-100 137 -287 137q-276 0 -465 -278 q-172 -252 -172 -555z" />
<glyph unicode="&#x153;" horiz-adv-x="2246" d="M1251 414q0 276 179 510q190 252 462 252q182 0 281.5 -97.5t99.5 -269.5q0 -68 -16 -145q-35 -166 -90 -166h-739q-8 -35 -9 -74q0 -127 78 -219q80 -98 201 -99q113 0 244 85t149 85q61 0 62 -63q0 -31 -25 -55q-182 -184 -457 -185q-211 0 -321 131q-99 117 -99 310z M1460 653h641q12 57 13 111q0 129 -71 198.5t-177 69.5q-129 0 -240 -94q-125 -107 -166 -285zM104 410q0 281 172 510q190 254 467 254q190 0 293 -134q92 -119 92 -311q0 -279 -167 -504q-188 -250 -472 -250q-190 0 -292 129q-93 118 -93 306zM281 438q0 -143 57 -231 q63 -98 180 -98q193 0 322 198q115 176 114 395q0 145 -57 234q-66 100 -182 100q-190 0 -320 -200q-114 -179 -114 -398z" />
<glyph unicode="&#x178;" horiz-adv-x="1101" d="M574 1773q0 47 35.5 89t89.5 42q96 0 96 -84q0 -47 -38 -89t-95 -42q-88 0 -88 84zM942 1775q0 49 35 89t90 40q96 0 97 -84q0 -49 -38 -90t-98 -41q-86 0 -86 86zM305 1427q0 39 26.5 66t57.5 27q41 0 57 -43l230 -598l477 594q39 47 84 47q55 0 55 -52q0 -29 -22 -57 l-561 -698l-131 -625q-20 -88 -97 -88q-61 0 -61 63q0 12 2 25l133 625l-244 682q-6 16 -6 32z" />
<glyph unicode="&#x2c6;" d="M186 596q0 37 35 82l629 807q41 51 96 51q53 0 72 -51l268 -807q6 -20 6 -39q0 -39 -24.5 -66.5t-59.5 -27.5q-61 0 -88 84l-221 690l-534 -690q-63 -82 -127 -82q-52 0 -52 49z" />
<glyph unicode="&#x3bc;" horiz-adv-x="1019" d="M-90 -430q0 10 4 20l311 1471q16 76 92 76q59 0 60 -58q0 -8 -2 -18l-144 -674q-6 -31 -6 -59q0 -88 59.5 -137.5t147.5 -49.5q121 0 225 82q117 94 150 250l125 588q16 76 92 76q61 0 61 -58q0 -8 -4 -18l-204 -973q-20 -90 -95 -90q-59 0 -59 61q0 8 2 19q4 25 14 78 q-152 -174 -360 -174q-129 0 -217 77l-99 -469q-16 -76 -94 -75q-59 0 -59 55z" />
<glyph unicode="&#x2000;" horiz-adv-x="1339" />
<glyph unicode="&#x2001;" horiz-adv-x="2680" />
<glyph unicode="&#x2002;" horiz-adv-x="1339" />
<glyph unicode="&#x2003;" horiz-adv-x="2680" />
<glyph unicode="&#x2004;" horiz-adv-x="892" />
<glyph unicode="&#x2005;" horiz-adv-x="669" />
<glyph unicode="&#x2006;" horiz-adv-x="446" />
<glyph unicode="&#x2007;" horiz-adv-x="446" />
<glyph unicode="&#x2008;" horiz-adv-x="333" />
<glyph unicode="&#x2009;" horiz-adv-x="534" />
<glyph unicode="&#x200a;" horiz-adv-x="147" />
<glyph unicode="&#x2010;" horiz-adv-x="761" d="M125 549q0 35 30.5 65.5t77.5 30.5h422q72 0 72 -63q0 -35 -28.5 -64t-77.5 -29h-420q-76 1 -76 60z" />
<glyph unicode="&#x2011;" horiz-adv-x="761" d="M125 549q0 35 30.5 65.5t77.5 30.5h422q72 0 72 -63q0 -35 -28.5 -64t-77.5 -29h-420q-76 1 -76 60z" />
<glyph unicode="&#x2012;" horiz-adv-x="761" d="M125 549q0 35 30.5 65.5t77.5 30.5h422q72 0 72 -63q0 -35 -28.5 -64t-77.5 -29h-420q-76 1 -76 60z" />
<glyph unicode="&#x2013;" horiz-adv-x="1404" d="M119 549q0 35 30.5 65.5t75.5 30.5h1037q74 0 73 -63q0 -35 -28.5 -64t-77.5 -29h-1036q-74 1 -74 60z" />
<glyph unicode="&#x2014;" horiz-adv-x="1810" d="M119 549q0 35 30.5 65.5t75.5 30.5h1442q72 0 72 -63q0 -35 -29 -64t-76 -29h-1441q-74 1 -74 60z" />
<glyph unicode="&#x2018;" horiz-adv-x="495" d="M309 1440q0 -10 2 -21l68 -303q10 -43 65 -43q41 0 74 23.5t27 58.5l-58 313q-14 78 -75 78q-39 0 -71 -31.5t-32 -74.5z" />
<glyph unicode="&#x2019;" horiz-adv-x="495" d="M240 1126q0 12 10 29l190 313q47 78 109 78q68 0 67 -67q0 -29 -20 -60l-199 -303q-27 -43 -82 -43q-75 0 -75 53z" />
<glyph unicode="&#x201a;" horiz-adv-x="495" d="M-45 -217q0 18 12 37l209 336q35 53 92 53q68 0 68 -49q0 -14 -10 -29l-232 -362q-27 -41 -74 -41q-65 0 -65 55z" />
<glyph unicode="&#x201c;" horiz-adv-x="829" d="M309 1440q0 -10 2 -21l68 -303q10 -43 65 -43q41 0 74 23.5t27 58.5l-58 313q-14 78 -75 78q-39 0 -71 -3105630B4A3D" />
<glyph unicode="&#x201d;" horiz-adv-x="829" d="M240 1126q0 12 10 29l190 313q47 78 109 78q68 0 67 -67q0 -29 -20 -60l-199 -303q-27 -43 -82 -43q-75 0 -75 53zM573 1126q0 12 9 29l190 313q47 78 109 78q68 0 67 -67q0 -29 -18 -60l-199 -303q-29 -43 -84 -43q-74 0 -74 53z" />
<glyph unicode="&#x201e;" horiz-adv-x="827" d="M-45 -213q0 14 12 33l209 336q27 43 90 43q68 0 68 -41q0 -12 -8 -27l-232 -362q-18 -29 -67 -29q-72 0 -72 47zM289 -213q0 14 10 33l211 336q27 43 90 43q68 0 68 -41q0 -12 -9 -27l-231 -362q-20 -29 -68 -29q-71 0 -71 47z" />
<glyph unicode="&#x2022;" horiz-adv-x="1130" d="M137 596q0 217 156 391q170 193 426 193q188 0 289 -109q92 -96 92 -254q0 -219 -156 -393q-170 -193 -426 -193q-188 0 -289 109q-92 98 -92 256z" />
<glyph unicode="&#x2026;" horiz-adv-x="1073" d="M20 84q0 47 36 85t94 38q88 0 88 -86q0 -47 -34 -84t-91 -37q-93 0 -93 84zM354 84q0 47 36 85t93 38q88 0 88 -86q0 -47 -33.5 -84t-91.5 -37q-92 0 -92 84zM686 84q0 47 36 85t95 38q86 0 86 -86q0 -47 -31 -82q-37 -39 -92 -39q-94 0 -94 84z" />
<glyph unicode="&#x202f;" horiz-adv-x="534" />
<glyph unicode="&#x2039;" horiz-adv-x="1331" d="M119 551q0 70 94 108l1022 435q41 16 70 16q59 0 59 -47q0 -63 -90 -102l-932 -406l743 -401q55 -31 56 -80q0 -31 -23.5 -53.5t-60.5 -22.5q-35 0 -72 20l-813 453q-53 31 -53 80z" />
<glyph unicode="&#x203a;" horiz-adv-x="1331" d="M16 59q0 66 86 103l908 385l-736 422q-51 29 -51 71q0 33 25.5 55.5t60.5 22.5q25 0 47 -10l832 -455q72 -41 72 -86q0 -61 -134 -118l-1003 -437q-25 -10 -47 -10q-60 0 -60 57z" />
<glyph unicode="&#x205f;" horiz-adv-x="669" />
<glyph unicode="&#x2122;" horiz-adv-x="1384" d="M319 1499q0 45 48 45h376q31 0 31 -28q0 -45 -45 -46h-154l-137 -649q-10 -51 -47 -51q-39 0 -29 51l140 649h-152q-31 0 -31 29zM545 805q0 10 4 20q29 84 244 670q23 63 77 64q55 0 60 -56l41 -590l303 590q29 55 84 56q53 0 49 -64l-39 -670q-4 -45 -45 -45 q-37 0 -35 41l43 633l-338 -633q-23 -45 -51 -45q-27 0 -31 45l-61 633l-225 -633q-16 -43 -54 -43q-26 0 -26 27z" />
<glyph unicode="&#xe000;" horiz-adv-x="1135" d="M0 1135h1135v-1135h-1135v1135z" />
<glyph unicode="&#xfb01;" horiz-adv-x="976" d="M653 57q0 8 2 19l217 1022q14 76 90 76q64 0 65 -52q0 -11 -3 -24l-217 -1022q-16 -78 -93 -78q-61 0 -61 59zM907 1397q0 47 35 85t94 38q86 0 86 -86q0 -49 -33 -84q-39 -39 -100 -39q-82 0 -82 86zM193 55q0 8 2 19l192 907h-94q-70 0 -70 57q0 35 29 66t74 31h96 l41 196q39 188 207 189h133q76 0 76 -60q0 -31 -29 -55.5t-78 -24.5q-96 0 -117 -8q-37 -16 -53 -94l-31 -143q33 0 131 2q70 0 70 -62q0 -37 -29.5 -66.5t-76.5 -29.5l-127 2l-193 -907q-16 -76 -94 -76q-59 0 -59 57z" />
<glyph unicode="&#xfb02;" horiz-adv-x="929" d="M622 57q0 8 2 19l291 1366q16 78 90 78q63 0 64 -60q0 -10 -2 -18l-291 -1366q-16 -78 -92 -78q-62 0 -62 59zM193 55q0 8 2 19l192 907h-94q-70 0 -70 57q0 35 29 66t74 31h96l41 196q39 188 207 189h133q76 0 76 -60q0 -31 -29 -55.5t-78 -24.5q-96 0 -117 -8 q-37 -16 -53 -94l-31 -143q33 0 131 2q70 0 70 -62q0 -37 -29.5 -66.5t-76.5 -29.5l-127 2l-193 -907q-16 -76 -94 -76q-59 0 -59 57z" />
<glyph unicode="&#xfb03;" horiz-adv-x="1585" d="M1262 57q0 8 2 19l217 1022q14 76 90 76q64 0 65 -52q0 -11 -3 -24l-217 -1022q-16 -78 -93 -78q-61 0 -61 59zM1516 1397q0 47 35 85t94 38q86 0 86 -86q0 -49 -33 -84q-39 -39 -100 -39q-82 0 -82 86zM801 55q0 8 2 19l192 907h-94q-70 0 -70 57q0 35 29 66t74 31h96 l41 196q39 188 207 189h133q76 0 76 -60q0 -31 -29 -55.5t-78 -24.5q-96 0 -117 -8q-37 -16 -53 -94l-31 -143q33 0 131 2q70 0 70 -62q0 -37 -29.5 -66.5t-76.5 -29.5l-127 2l-193 -907q-16 -76 -94 -76q-59 0 -59 57zM193 55q0 8 2 19l192 907h-94q-70 0 -70 57 q0 35 29 66t74 31h96l41 196q39 188 207 189h133q76 0 76 -60q0 -31 -29 -55.5t-78 -24.5q-96 0 -117 -8q-37 -16 -53 -94l-31 -143q33 0 131 2q70 0 70 -62q0 -37 -29.5 -66.5t-76.5 -29.5l-127 2l-193 -907q-16 -76 -94 -76q-59 0 -59 57z" />
<glyph unicode="&#xfb04;" horiz-adv-x="1538" d="M1231 57q0 8 2 19l291 1366q16 78 90 78q63 0 64 -60q0 -10 -2 -18l-291 -1366q-16 -78 -92 -78q-62 0 -62 59zM801 55q0 8 2 19l192 907h-94q-70 0 -70 57q0 35 29 66t74 31h96l41 196q39 188 207 189h133q76 0 76 -60q0 -31 -29 -55.5t-78 -24.5q-96 0 -117 -8 q-37 -16 -53 -94l-31 -143q33 0 131 2q70 0 70 -62q0 -37 -29.5 -66.5t-76.5 -29.5l-127 2l-193 -907q-16 -76 -94 -76q-59 0 -59 57zM193 55q0 8 2 19l192 907h-94q-70 0 -70 57q0 35 29 66t74 31h96l41 196q39 188 207 189h133q76 0 76 -60q0 -31 -29 -55.5t-78 -24.5 q-96 0 -117 -8q-37 -16 -53 -94l-31 -143q33 0 131 2q70 0 70 -62q0 -37 -29.5 -66.5t-76.5 -29.5l-127 2l-193 -907q-16 -76 -94 -76q-59 0 -59 57z" />
</font>
</defs>
</svg>
